img image001 image001 image001 image001 image001 image001 image001 image001 image001 image001 image001 image001 image001 image001 image001

Planets Sun Sun Sun
Статистика раздачи
Автор: Nickolas3434 | Размер: 4.55 ГБ | Добавлен: 23 дек 2014
Раздают: 104    Качают: 25
Скачать торрент
Скачать торрент
Описание торрента

СообщениеДобавлено: 23 дек 2014 

«Некогда скучать!»


Страна: Сингапур / VROOMIZ@SAMG/EBS/SKB/KOSSA
Год выпуска: 2012
Жанр: мультфильм, приключения, детский
Продолжительность: ~ 00:13:10 / серия
Перевод: Профессиональный (дублированный)
Субтитры: нет
Оригинальная аудиодорожка: нет


Режиссер: Йонг Чул Джо / Yong Chul Joe


Озвучивали: неизвестно
Описание: Добро пожаловать в фантастический мир Врумиз. Здесь, в городе Зиппи Сити, вы познакомитесь с машинками-зверюшками — гепардом Спиди, обезьянкой Банги, олененком Фаррой, пандой ПиТи и жирафом Джиральдиной. Спиди — самый быстрый малый в Зиппи Сити. Он отважно гоняет по суперсовременному гоночному треку в Зиппи Сити и верит, что станет чемпионом. Жизнь Врумиз полна приключений, опасностей и сюрпризов. Спиди и его друзья, решая проблемы Зиппи Сити, с легкостью выходят из любой ситуации, проявляя невероятную выдумку и изобретательность. Пристегните ремни безопасности и поехали на прогулку с Врумиз! Врум-врум!

Качество: DVDRip-AVC / DVD5 R5 от компании "Мистерия звука"
Формат: MKV
Видео: 712x576@1018x576 (16:9), 25.000 fps, MPEG-4 AVC ~ 1697 kbps avg, 0.166 bit/pixel
Аудио: 48 kHz, Dolby AC3 2.0 192 kbps, русский
Релиз от:
01. Пропавшие проказники
02. В поисках веселья
03. Сила воображения
04. Спасение на скорость
05. Клуб не для всех
06. Привидение каньона Карбюраторов
07. Самый лучший полицейский
08. Унесённые ветром
09. Загадочная дорога
10. Лунный Банги
11. Забытый друг
12. Грязная катастрофа
13. День розыгрышей
14. Ночные приключения
15. Гаражная распродажа
16. Копировальная машина
17. Маленький врунишка
18. Остуди двигатель
19. Капитан чистоты
20. Снежный день
21. Фантастика
22. Юные детективы
23. Летняя история
24. Дух соперничества
25. На морском причале
26. Легенда о драконе

General
Format : Matroska
Format version : Version 4 / Version 2
File size : 179 MiB
Duration : 13mn 12s
Overall bit rate : 1 892 Kbps
Encoded date : UTC 2014-12-20 11:11:04
Writing application : mkvmerge v7.4.0 ('Circles') 64bit built on Dec 12 2014 12:19:56
Writing library : libebml v1.3.0 + libmatroska v1.4.1
DURATION : 00:13:12.544000000
NUMBER_OF_FRAMES : 24767
NUMBER_OF_BYTES : 19021056
_STATISTICS_WRITING_APP : mkvmerge v7.4.0 ('Circles') 64bit built on Dec 12 2014 12:19:56
_STATISTICS_WRITING_DATE_UTC : 2014-12-20 11:11:04
_STATISTICS_TAGS : BPS DURATION NUMBER_OF_FRAMES NUMBER_OF_BYTES
Video
ID : 1
Format : AVC
Format/Info : Advanced Video Codec
Format profile : High@L4.1
Format settings, CABAC : Yes
Format settings, ReFrames : 8 frames
Codec ID : V_MPEG4/ISO/AVC
Duration : 13mn 12s
Bit rate : 1 697 Kbps
Width : 712 pixels
Height : 576 pixels
Display aspect ratio : 16:9
Original display aspect ratio : 16:9
Frame rate mode : Constant
Frame rate : 25.000 fps
Color space : YUV
Chroma subsampling : 4:2:0
Bit depth : 8 bits
Scan type : Progressive
Bits/(Pixel*Frame) : 0.166
Stream size : 157 MiB (88%)
Writing library : x264 core 138 r2356 a1d3d17
Encoding settings : cabac=1 / ref=8 / deblock=1:-2:-1 / analyse=0x3:0x113 / me=umh / subme=10 / psy=1 / psy_rd=1.00:0.05 / mixed_ref=1 / me_range=32 / chroma_me=1 / trellis=2 / 8x8dct=1 / cqm=0 / deadzone=21,11 / fast_pskip=0 / chroma_qp_offset=-3 / threads=6 / lookahead_threads=1 / sliced_threads=0 / nr=0 / decimate=0 / interlaced=0 / bluray_compat=0 / constrained_intra=0 / bframes=8 / b_pyramid=2 / b_adapt=2 / b_bias=0 / direct=3 / weightb=1 / open_gop=0 / weightp=2 / keyint=250 / keyint_min=25 / scenecut=40 / intra_refresh=0 / rc=2pass / mbtree=0 / bitrate=1697 / ratetol=1.0 / qcomp=0.60 / qpmin=0 / qpmax=69 / qpstep=4 / cplxblur=20.0 / qblur=0.5 / ip_ratio=1.40 / pb_ratio=1.30 / aq=1:1.00
Language : English
Default : Yes
Forced : No
DURATION : 00:13:12.560000000
NUMBER_OF_FRAMES : 19814
NUMBER_OF_BYTES : 168233373
_STATISTICS_WRITING_APP : mkvmerge v7.4.0 ('Circles') 64bit built on Dec 12 2014 12:19:56
_STATISTICS_WRITING_DATE_UTC : 2014-12-20 11:11:04
_STATISTICS_TAGS : BPS DURATION NUMBER_OF_FRAMES NUMBER_OF_BYTES
Audio
ID : 2
Format : AC-3
Format/Info : Audio Coding 3
Mode extension : CM (complete main)
Format settings, Endianness : Big
Codec ID : A_AC3
Duration : 13mn 12s
Bit rate mode : Constant
Bit rate : 192 Kbps
Channel(s) : 2 channels
Channel positions : Front: L R
Sampling rate : 48.0 KHz
Bit depth : 16 bits
Compression mode : Lossy
Stream size : 18.1 MiB (10%)
Language : Russian
Default : Yes
Forced : No





   Похожие торренты   Торрент   Размер 
В этой теме нет новых непрочитанных сообщений. Врумиз / Vroomiz [S01-02: 01-52 из 52] (2012...) DVDRip-AVC от New-Team | D | лицензия

245 | 60

9.24 ГБ

В этой теме нет новых непрочитанных сообщений. Врумиз / Vroomiz [S01-02: 01-52 из 52] (2012...) DVDRip от New-Team | D | лицензия

128 | 71

9.25 ГБ

В этой теме нет новых непрочитанных сообщений. Врумиз / Vroomiz (2012) DVDRip от New-Team | лицензия

467 | 81

4.55 ГБ

В этой теме нет новых непрочитанных сообщений. Врумиз / Vroomiz (2012) 2xDVD5 от New-Team | D | Лицензия

232 | 30

8.26 ГБ

В этой теме нет новых непрочитанных сообщений. Врумиз / Vroomiz [02х01-16 из 16] (2012) WEB-DLRip-AVC от ExKinoRay

225 | 24

3.15 ГБ

В этой теме нет новых непрочитанных сообщений. Шопинг-тур (2012) DVDRip от New-Team | лицензия

43 | 16

746.03 МБ

В этой теме нет новых непрочитанных сообщений. Шопинг-тур (2012) DVDRip от New-Team | лицензия

106 | 36

1.34 ГБ




Вы не можете начинать темы
Вы не можете отвечать на сообщения
Вы не можете редактировать свои сообщения
Вы не можете удалять свои сообщения
Вы не можете добавлять вложения

Перейти:  
Для Мосгорсуда, Роскомнадзора и рекламодателей: mosgorsud-torrent[собачка]yandex.ru
 Вход
ppkBB3cker v.2 © 2008-2014 @ PPK
[ Time : 0.049s | 16 Queries | GZIP : Off ]

Торрент трекер RUTOR.IN, Не можете зайти на rutor.org? Какой новый адрес рутор? Какое зеркало рутор? Не работает rutor.org и зеркала? Тогда наш торрент специально для вас. Rutor.in неофициальное зеркало rutor. В случае если у Вас заблокирован rutor или вдруг Вы не можете на него зайти, то Вы без труда сможете скачать бесплатно и без рекламы последние новинки кино, игр, сериалов и прочего у нас, на Rutor.in. Не нужно использовать прокси, чтобы зайти на рутор, достаточно воспользоваться нашим ресурсом. Все новые фильмы, игры, сериалы, книги и музыка за 2013 и 2014 годы через торрент бесплатно. Скачивайте фильмы в хорошем качестве, игры для пк, xbox, playstation без регистрации. У нас вы найдете новые Зарубежные сериалы и Русские сериалы 2013, 2014, 2015 годов. Оставайтесь с нами, качайте любимые фильмы, игры, сериалы, книги и музыку.