img image001 image001 image001 image001 image001 image001 image001 image001 image001 image001 image001 image001 image001 image001 image001

Planets Sun Sun Sun
Статистика раздачи
Автор: Nickolas3434 | Размер: 51.15 ГБ | Добавлен: 23 дек 2014
Раздают: 39    Качают: 23
Скачать торрент
Скачать торрент
Описание торрента

СообщениеДобавлено: 23 дек 2014 



Название: Призрак в доспехах: Синдром одиночки (сериал 2002-2005)
Оригинальное название: Kokaku kidotai: Stand Alone Complex
Год выпуска: 2002-2005
Страна: Япония
Жанр: аниме, мультфильм, фантастика, боевик, триллер, криминал
Продолжительность: ~00:26:14
Перевод: Профессиональный многоголосый
Субтитры: русские (Полные)

Режиссер: Кэндзи Камияма / Kenji Kamiyama, Масаки Тачибана / Masaki Tachibana, Ицуро Кавасаки / Itsurô Kawasaki

В ролях: Ацуко Танака (Major Motoko Kusanagi), Осаму Сака (Chief Daisuke Aramaki), Дино Андраде (Children), Кевин Бриф (Kanzaki), Лой Эдж (SWAT), Барбара Гудсон (Maruta), Майкл Грегори (Reiko), Кейт Хиггинс (Children), Пэдди Ли (Fom), Майкл МакКоннохи (Commander), Лайам О’Брайэн (Fake Laughing Man), Пегги О’Нил (Girl)


Описание:
«Майор» Мотоко Кусанаги, Бато и другие сотрудники секретного Девятого отдела разрешают международный кризис с заложниками, ведут охоту на самовольно покинувший полигон шагающий танк и расследуют серию самоубийств андроидов устаревшей модели. Когда погибает старый друг Тогусы, оперативники выходят на след загадочного хакера по кличке «Смеющийся человек»...


Рейтинг

imdb.com: 8.60 (8556)


Автор рипа:Tiberiumsun69



Качество: BDRip 1080p / 60 FPS
Формат: MKV
Видео кодек: AVC
Аудио кодек:AC3
Видео: AVC, 1920x1032 (1.860), 10000 kbps, 59,864 fps, 0,084 bpp
Аудио №1: русский / AC3 / 5.1 / 48 kHz / 384 kbps / 16 bit |Многоголосый, закадровый MC Entertainment|
Аудио №2: японский / AC3 / 5.1 / 48 kHz / 640 kbps / 16 bit
Навигация по главам: есть



General
Unique ID : 200079774052223258276856360636287167016 (0x9685F67ACDD5682F832DC0C2D9962A28)
Complete name : A:1080p 60fpsПризрак в доспехах синдром одиночки 1080p 60fpsСезон 11. 9-Й ОТДЕЛ.mkv
Format : Matroska
Format version : Version 4 / Version 2
File size : 2.02 GiB
Duration : 26mn 14s
Overall bit rate : 11.0 Mbps
Movie name : R.G. HD-Films by Tiberiumsun69 60fps
Encoded date : UTC 2014-12-21 17:52:43
Writing application : mkvmerge v7.4.0 ('Circles') 64bit built on Dec 12 2014 12:19:56
Writing library : libebml v1.3.0 + libmatroska v1.4.1
Video
ID : 1
Format : AVC
Format/Info : Advanced Video Codec
Format profile : High@L4.1
Format settings, CABAC : Yes
Format settings, ReFrames : 4 frames
Codec ID : V_MPEG4/ISO/AVC
Duration : 26mn 14s
Bit rate : 10 000 Kbps
Width : 1 920 pixels
Height : 1 032 pixels
Display aspect ratio : 1.860
Frame rate : 59.864 fps
Color space : YUV
Chroma subsampling : 4:2:0
Bit depth : 8 bits
Scan type : Progressive
Bits/(Pixel*Frame) : 0.084
Stream size : 1.79 GiB (89%)
Title : R.G. HD-Films by Tiberiumsun69 60fps
Writing library : x264 core 142 r2491 24e4fed
Encoding settings : cabac=1 / ref=4 / deblock=1:0:0 / analyse=0x3:0 / me=umh / subme=10 / psy=1 / psy_rd=0.80:0.00 / mixed_ref=1 / me_range=32 / chroma_me=0 / trellis=2 / 8x8dct=1 / cqm=0 / deadzone=21,11 / fast_pskip=1 / chroma_qp_offset=-2 / threads=12 / lookahead_threads=1 / sliced_threads=0 / nr=0 / decimate=1 / interlaced=0 / bluray_compat=0 / constrained_intra=0 / bframes=5 / b_pyramid=2 / b_adapt=2 / b_bias=0 / direct=3 / weightb=1 / open_gop=0 / weightp=2 / keyint=250 / keyint_min=59 / scenecut=40 / intra_refresh=0 / rc=2pass / mbtree=0 / bitrate=10000 / ratetol=1.0 / qcomp=0.80 / qpmin=0 / qpmax=69 / qpstep=4 / cplxblur=20.0 / qblur=0.5 / ip_ratio=1.40 / pb_ratio=1.30 / aq=1:1.00
Language : English
Default : Yes
Forced : No
Audio #1
ID : 2
Format : AC-3
Format/Info : Audio Coding 3
Mode extension : CM (complete main)
Codec ID : A_AC3
Duration : 26mn 14s
Bit rate mode : Constant
Bit rate : 384 Kbps
Channel(s) : 6 channels
Channel positions : Front: L C R, Side: L R, LFE
Sampling rate : 48.0 KHz
Bit depth : 16 bits
Compression mode : Lossy
Stream size : 72.1 MiB (3%)
Title : Многоголосый, закадровый MC Entertainment
Language : Russian
Default : Yes
Forced : No
Audio #2
ID : 3
Format : AC-3
Format/Info : Audio Coding 3
Mode extension : CM (complete main)
Codec ID : A_AC3
Duration : 26mn 14s
Bit rate mode : Constant
Bit rate : 640 Kbps
Channel(s) : 6 channels
Channel positions : Front: L C R, Side: L R, LFE
Sampling rate : 48.0 KHz
Bit depth : 16 bits
Compression mode : Lossy
Stream size : 120 MiB (6%)
Title : Оригинал
Language : Japanese
Default : No
Forced : No
Text
ID : 4
Format : UTF-8
Codec ID : S_TEXT/UTF8
Codec ID/Info : UTF-8 Plain Text
Title : Полные
Language : Russian
Default : No
Forced : No
Menu
00:00:00.000 : en:Opening
00:01:30.090 : en:Part A
00:10:03.069 : en:Part B
00:23:00.179 : en:Ending
00:24:30.202 : en:Tachikomatic Days

Просьба к переливающим на другие сайты, в оформлении указывайте пожалуйста авторство рипа - Tiberiumsun69



   Похожие торренты   Торрент   Размер 
В этой теме нет новых непрочитанных сообщений. Призрак в доспехах: Синдром одиночки [S01] (2002) BDRip от HQCLUB

7 | 6

11.36 ГБ

В этой теме нет новых непрочитанных сообщений. Призрак в доспехах: Синдром одиночки - Сообщество крепкого государства / Ghost in the Shell: SAC - SSS (2006) DVDRip

101 | 22

696.22 МБ

В этой теме нет новых непрочитанных сообщений. Призрак в доспехах: Синдром одиночки. Сообщество крепкого государства / Kôkaku kidôtai: Stand Alone Complex Solid State Society (2006) BDRip от HQ-ViDEO

110 | 44

2.47 ГБ

В этой теме нет новых непрочитанных сообщений. Призрак в доспехах: Синдром одиночки [S02] (2004) BDRip от HQCLUB

8 | 3

11.36 ГБ

В этой теме нет новых непрочитанных сообщений. Призрак в доспехах: Антология / Koukaku Kidoutai: Antology (1995-2013) BDRip-AVC от R.G. HD-Films | 60 fps

73 | 143

74.74 ГБ

В этой теме нет новых непрочитанных сообщений. Призрак в доспехах: Антология / Koukaku Kidoutai: Antology (1995-2013) BDRip-AVC от R.G. HD-Films | 60 fps

109 | 96

76.36 ГБ

В этой теме нет новых непрочитанных сообщений. Призрак в доспехах 2.0 / Ghost in the Shell 2.0 (2008) BDRip 1080p

49 | 39

6.35 ГБ




Вы не можете начинать темы
Вы не можете отвечать на сообщения
Вы не можете редактировать свои сообщения
Вы не можете удалять свои сообщения
Вы не можете добавлять вложения

Перейти:  
Для Мосгорсуда, Роскомнадзора и рекламодателей: mosgorsud-torrent[собачка]yandex.ru
 Вход
ppkBB3cker v.2 © 2008-2014 @ PPK
[ Time : 0.019s | 16 Queries | GZIP : On ]

Торрент трекер RUTOR.IN, Не можете зайти на rutor.org? Какой новый адрес рутор? Какое зеркало рутор? Не работает rutor.org и зеркала? Тогда наш торрент специально для вас. Rutor.in неофициальное зеркало rutor. В случае если у Вас заблокирован rutor или вдруг Вы не можете на него зайти, то Вы без труда сможете скачать бесплатно и без рекламы последние новинки кино, игр, сериалов и прочего у нас, на Rutor.in. Не нужно использовать прокси, чтобы зайти на рутор, достаточно воспользоваться нашим ресурсом. Все новые фильмы, игры, сериалы, книги и музыка за 2013 и 2014 годы через торрент бесплатно. Скачивайте фильмы в хорошем качестве, игры для пк, xbox, playstation без регистрации. У нас вы найдете новые Зарубежные сериалы и Русские сериалы 2013, 2014, 2015 годов. Оставайтесь с нами, качайте любимые фильмы, игры, сериалы, книги и музыку.