img image001 image001 image001 image001 image001 image001 image001 image001 image001 image001 image001 image001 image001 image001 image001 image001

Planets Sun Sun Sun
Статистика раздачи
Автор: Nickolas3434 | Размер: 1.37 ГБ | Добавлен: 24 дек 2014
Раздают: 28    Качают: 3
Скачать торрент
Скачать торрент
Описание торрента

СообщениеДобавлено: 24 дек 2014 

Год выпуска: 1989
Страна: США, Япония
Жанр: мультфильм, фэнтези, драма, приключения, семейный
Продолжительность: 01:34:31
Перевод: Авторский (одноголосый закадровый) Андрей Дольский
Субтитры: нет


Режиссер: Масами Хата, Уильям Т. Хёрц



Описание:
Маленький мальчик по имени Немо видит страшный сон, о том, как за ним по земле и по воде мчится огромный поезд. На утро папа зовет его смотреть цирк, который приехал в город. Среди участников циркового представления Немо видит тех, с кем ему суждено дальше встретиться. На следующую ночь он просыпается от странного света. За Немо прилетел дирижабль, и ему предлагают отправится в Страну Снов по приглашению Принцессы, которая, кстати, прислала в подарок печенье. Немо радостно отправляется в путь. По пути дирижабль попадает в шторм в море Кошмаров, которое отделяет мир Немо от Страны Снов.


Файл
Качество: DVDRip
Формат: AVI
Видео кодек: XviD
Аудио кодек: AC3
Видео: 624x352 (1.77:1), 29.970 fps, XviD MPEG-4 ~1680 kbps avg, 0.26 bit/pixel
Аудио#1: 48 kHz, AC3 Dolby Digital, 2/0 (L,R) ch, ~384 kbps

Релиз от: anton210896




General
Complete name : E:ripLittle.Nemo.1986.Dt.DVDRip.XviD.AC3.AVO.1400MB.avi
Format : AVI
Format/Info : Audio Video Interleave
File size : 1.37 GiB
Duration : 1h 34mn
Overall bit rate : 2 071 Kbps
Movie name : Приключения малыша Немо (1989) / DVDRip by anton210896
Director : anton210896
Genre : мультфильм, фэнтези, драма
Writing application : VirtualDubMod 1.5.4.1 (build 2178/release)
Copyright : anton210896 (piratbit.net)
Comment : 23.12.14
Video
ID : 0
Format : MPEG-4 Visual
Format profile : Advanced Simple@L5
Format settings, BVOP : 1
Format settings, QPel : No
Format settings, GMC : No warppoints
Format settings, Matrix : Custom
Codec ID : XVID
Codec ID/Hint : XviD
Duration : 1h 34mn
Bit rate : 1 679 Kbps
Width : 624 pixels
Height : 352 pixels
Display aspect ratio : 16:9
Frame rate : 29.970 fps
Color space : YUV
Chroma subsampling : 4:2:0
Bit depth : 8 bits
Scan type : Progressive
Compression mode : Lossy
Bits/(Pixel*Frame) : 0.255
Stream size : 1.11 GiB (81%)
Writing library : XviD 64
Audio
ID : 1
Format : AC-3
Format/Info : Audio Coding 3
Mode extension : CM (complete main)
Format settings, Endianness : Big
Codec ID : 2000
Duration : 1h 34mn
Bit rate mode : Constant
Bit rate : 384 Kbps
Channel(s) : 2 channels
Channel positions : Front: L R
Sampling rate : 48.0 KHz
Bit depth : 16 bits
Compression mode : Lossy
Stream size : 260 MiB (19%)
Alignment : Split accross interleaves
Interleave, duration : 96 ms (2.88 video frames)
Interleave, preload duratio : 96 ms



   Похожие торренты   Торрент   Размер 
В этой теме нет новых непрочитанных сообщений. Маленький Немо: Приключения в стране снов / Little Nemo: Adventures in Slumberland (1989) DVDRip

8 | 4

1.38 ГБ

В этой теме нет новых непрочитанных сообщений. В поисках Немо / Finding Nemo (Эндрю Стэнтон, Ли Анкрич) [2003, мультфильм, комедия, приключения, семейный, LowHDRip] DUB / Walt Disney

27 | 0

744.47 МБ

В этой теме нет новых непрочитанных сообщений. В поисках Немо / Finding Nemo (2003) DVDRip

41 | 7

670.58 МБ

В этой теме нет новых непрочитанных сообщений. Приключения в стране Лалалупсия. В поисках Сказки / Adventures in Lalaloopsy Land. The search for Pillow (2012) DVDRip от New-Team | D

152 | 6

1.46 ГБ

В этой теме нет новых непрочитанных сообщений. Капитан Немо и подводный город / Captain Nemo and the Underwater City (1969) DVDRip

8 | 3

1.46 ГБ

В этой теме нет новых непрочитанных сообщений. В поисках Немо / Finding Nemo (2003) HDTVRip

517 | 18

1.45 ГБ

В этой теме нет новых непрочитанных сообщений. В поисках Немо / Finding Nemo (2003) BDRip

2223 | 103

1.45 ГБ




Вы не можете начинать темы
Вы не можете отвечать на сообщения
Вы не можете редактировать свои сообщения
Вы не можете удалять свои сообщения
Вы не можете добавлять вложения

Перейти:  
 Вход
ppkBB3cker v.2 © 2008-2014 @ PPK
[ Time : 0.349s | 15 Queries | GZIP : Off ]

cron