img image001 image001 image001 image001 image001 image001 image001 image001 image001 image001 image001 image001 image001 image001 image001

Planets Sun Sun Sun
Статистика раздачи
Автор: Nickolas3434 | Размер: 1.64 ГБ | Добавлен: 24 дек 2014
Раздают: 180    Качают: 5
Скачать торрент
Скачать торрент
Описание торрента

СообщениеДобавлено: 24 дек 2014 

Информация о фильме:
Название: Ученик Санты
Оригинальное название: L'apprenti Père Noël
Год выхода: 2010
Жанр: мультфильм, комедия
Режиссер: Люк Винчигуэрра
Роли озвучивали: Жюли Гайе, Жан-Пьер Марьель, Лоран Дойч, Бруно Саломон, Пьер-Франсуа Мартен-Лаваль, Дидье Брайс, Бенуа Аллемане, Нэйтан Симони, Макс Каллен, Холли Фрайзер
О фильме: Старый добрый Санта не хочет уходить на пенсию, но правила есть правила — он должен кого-то обучить себе на замену. Счастливчика, которого выберут из числа миллионов детей, должны звать Николасом, он должен быть сиротой и, конечно, обладать чистым сердцем. И такой ребенок есть!
На другом конце света живет маленький мальчик, который идеально подходит для этой ответственной миссии, но неуверенность в себе и, главное, страх высоты делают его никудышным претендентом. Согласится ли Санта помочь своему ученику справиться со страхами и достойно занять его место?

Выпущено: Австралия, Франция, Ирландия
Продолжительность: 01:20:45
Перевод: Профессиональный (полное дублирование) R5 + Авторский (одноголосый, закадровый) Ю. Живов + Оригинал (французский)
Субтитры: Французские (обычные, SDH)
Файл:
Формат: AVI
Качество: BDRip (AVC)
Видео: MPEG-4 AVC, 1822 Кбит/с, 1024x576
Аудио #1: 48 kHz, AC3 Dolby Digital, 2/0 (L,R) ch, ~192 kbps avg (DUB) R5
Аудио #2: 48 kHz, AC3 Dolby Digital, 3/2 (L,C,R,l,r) + LFE ch, ~448 kbps avg (AVO.JIVOV)
Аудио #3: 48 kHz, AC3 Dolby Digital, 3/2 (L,C,R,l,r) + LFE ch, ~448 kbps avg (FRE)
General
Unique ID : 245976340643268191247434175818737876878 (0xB90D51EBE282C7A49C565BDF34CB7F8E)
Complete name : C:Santa's.Apprentice.2010.BDRip.AVC.ExKinoRay.mkv
Format : Matroska
Format version : Version 4 / Version 2
File size : 1.64 GiB
Duration : 1h 20mn
Overall bit rate : 2 908 Kbps
Movie name : Santa's Apprentice 2010 from ExKinoRay
Encoded date : UTC 2014-12-23 20:55:03
Writing application : mkvmerge v6.6.0 ('The Edge Of The In Between') built on Dec 1 2013 17:55:00
Writing library : libebml v1.3.0 + libmatroska v1.4.1
Video
ID : 1
Format : AVC
Format/Info : Advanced Video Codec
Format profile : High@L4.1
Format settings, CABAC : Yes
Format settings, ReFrames : 10 frames
Codec ID : V_MPEG4/ISO/AVC
Duration : 1h 20mn
Bit rate : 1 822 Kbps
Width : 1 024 pixels
Height : 576 pixels
Display aspect ratio : 16:9
Frame rate mode : Constant
Frame rate : 24.000 fps
Color space : YUV
Chroma subsampling : 4:2:0
Bit depth : 8 bits
Scan type : Progressive
Bits/(Pixel*Frame) : 0.129
Stream size : 1 018 MiB (61%)
Title : Enigma-Vladislav71
Writing library : x264 core 133 r2334 a3ac64b
Encoding settings : cabac=1 / ref=10 / deblock=1:-1:-2 / analyse=0x3:0x113 / me=umh / subme=11 / psy=1 / psy_rd=1.00:0.15 / mixed_ref=1 / me_range=32 / chroma_me=1 / trellis=2 / 8x8dct=1 / cqm=0 / deadzone=21,11 / fast_pskip=0 / chroma_qp_offset=-3 / threads=12 / lookahead_threads=3 / sliced_threads=0 / nr=0 / decimate=0 / interlaced=0 / bluray_compat=0 / constrained_intra=0 / bframes=10 / b_pyramid=2 / b_adapt=2 / b_bias=0 / direct=3 / weightb=1 / open_gop=0 / weightp=2 / keyint=240 / keyint_min=24 / scenecut=40 / intra_refresh=0 / rc=2pass / mbtree=0 / bitrate=1822 / ratetol=1.0 / qcomp=0.60 / qpmin=0 / qpmax=39 / qpstep=4 / cplxblur=20.0 / qblur=0.5 / ip_ratio=1.40 / pb_ratio=1.30 / aq=1:1.00
Language : English
Default : Yes
Forced : No
Color primaries : BT.709
Transfer characteristics : BT.709
Matrix coefficients : BT.709
Audio #1
ID : 2
Format : AC-3
Format/Info : Audio Coding 3
Mode extension : CM (complete main)
Format settings, Endianness : Big
Codec ID : A_AC3
Duration : 1h 20mn
Bit rate mode : Constant
Bit rate : 192 Kbps
Channel(s) : 2 channels
Channel positions : Front: L R
Sampling rate : 48.0 KHz
Bit depth : 16 bits
Compression mode : Lossy
Stream size : 111 MiB (7%)
Title : DUB R5
Language : Russian
Default : Yes
Forced : No
Audio #2
ID : 3
Format : AC-3
Format/Info : Audio Coding 3
Mode extension : CM (complete main)
Format settings, Endianness : Big
Codec ID : A_AC3
Duration : 1h 20mn
Bit rate mode : Constant
Bit rate : 448 Kbps
Channel(s) : 6 channels
Channel positions : Front: L C R, Side: L R, LFE
Sampling rate : 48.0 KHz
Bit depth : 16 bits
Compression mode : Lossy
Stream size : 259 MiB (15%)
Title : Живов
Language : Russian
Default : No
Forced : No
Audio #3
ID : 4
Format : AC-3
Format/Info : Audio Coding 3
Mode extension : CM (complete main)
Format settings, Endianness : Big
Codec ID : A_AC3
Duration : 1h 20mn
Bit rate mode : Constant
Bit rate : 448 Kbps
Channel(s) : 6 channels
Channel positions : Front: L C R, Side: L R, LFE
Sampling rate : 48.0 KHz
Bit depth : 16 bits
Compression mode : Lossy
Stream size : 259 MiB (15%)
Language : French
Default : No
Forced : No
Text #1
ID : 5
Format : UTF-8
Codec ID : S_TEXT/UTF8
Codec ID/Info : UTF-8 Plain Text
Language : French
Default : No
Forced : No
Text #2
ID : 6
Format : UTF-8
Codec ID : S_TEXT/UTF8
Codec ID/Info : UTF-8 Plain Text
Title : SDH
Language : French
Default : No
Forced : No
Menu
00:00:00.000 : en:Chapter 1
00:10:55.458 : en:Chapter 2
00:20:57.292 : en:Chapter 3
00:30:22.000 : en:Chapter 4
00:41:45.333 : en:Chapter 5
00:53:56.958 : en:Chapter 6
01:07:13.500 : en:Chapter 7
01:14:57.500 : en:Chapter 8



Релиз от:
Авторы релиза:



   Похожие торренты   Торрент   Размер 
В этой теме нет новых непрочитанных сообщений. Ученик Санты / Santa's Apprentice / L'apprenti Père Noël (2010) BDRip от HQCLUB | Лицензия

59 | 3

1.45 ГБ

В этой теме нет новых непрочитанных сообщений. Ученик Санты / Santa's Apprentice (2010) HDRip | Лицензия

1 | 2

696.77 МБ

В этой теме нет новых непрочитанных сообщений. Ученик Санты / Santa's Apprentice (2010) HDRip | Лицензия

6 | 2

1.37 ГБ

В этой теме нет новых непрочитанных сообщений. Ученик Санты / Santa's Apprentice (2010) DVDRip

1 | 3

700.44 МБ

В этой теме нет новых непрочитанных сообщений. Ученик Санты / Santa's Apprentice (2010) DVDRip

10 | 3

1.37 ГБ

В этой теме нет новых непрочитанных сообщений. Ученик Санты / Santa's Apprentice (2010) DVDRip-AVC от FireBit

8 | 3

1.45 ГБ

В этой теме нет новых непрочитанных сообщений. Ученик чародея / The Sorcerer's Apprentice (2010) BDRip-AVC от HELLYWOOD | Лицензия

999 | 61

1.46 ГБ




Вы не можете начинать темы
Вы не можете отвечать на сообщения
Вы не можете редактировать свои сообщения
Вы не можете удалять свои сообщения
Вы не можете добавлять вложения

Перейти:  
Для Мосгорсуда, Роскомнадзора и рекламодателей: mosgorsud-torrent[собачка]yandex.ru
 Вход
ppkBB3cker v.2 © 2008-2014 @ PPK
[ Time : 1.640s | 17 Queries | GZIP : Off ]

Торрент трекер RUTOR.IN, Не можете зайти на rutor.org? Какой новый адрес рутор? Какое зеркало рутор? Не работает rutor.org и зеркала? Тогда наш торрент специально для вас. Rutor.in неофициальное зеркало rutor. В случае если у Вас заблокирован rutor или вдруг Вы не можете на него зайти, то Вы без труда сможете скачать бесплатно и без рекламы последние новинки кино, игр, сериалов и прочего у нас, на Rutor.in. Не нужно использовать прокси, чтобы зайти на рутор, достаточно воспользоваться нашим ресурсом. Все новые фильмы, игры, сериалы, книги и музыка за 2013 и 2014 годы через торрент бесплатно. Скачивайте фильмы в хорошем качестве, игры для пк, xbox, playstation без регистрации. У нас вы найдете новые Зарубежные сериалы и Русские сериалы 2013, 2014, 2015 годов. Оставайтесь с нами, качайте любимые фильмы, игры, сериалы, книги и музыку.