img image001 image001 image001 image001 image001 image001 image001 image001 image001 image001 image001 image001 image001 image001 image001

Planets Sun Sun Sun
Статистика раздачи
Автор: Nickolas3434 | Размер: 1.39 ГБ | Добавлен: 26 дек 2014
Раздают: 226    Качают: 9
Скачать торрент
Скачать торрент
Описание торрента

СообщениеДобавлено: 26 дек 2014 

Год выпуска: 2014
Страна: США
Жанр: мультфильм, фэнтези, комедия, приключения, семейный
Продолжительность: 01:36:09
Перевод: Дублированный
Режиссер: Грэхэм Эннэйбл, Энтони Стакки
В ролях: Бен Кингсли, Джаред Харрис, Ник Фрост, Ричард Айоади, Трэйси Морган, Ди Брэдли Бэйкер, Стивен Блум, Ника Футтерман
Описание: Ему не повезло родиться в роскошном замке. Вместе с семейкой забавных монстров юноша поселился прямо под мостовой. Изысканные костюмы ему заменила обычная коробка. Зато каждую ночь он мог разгуливать по темным улицам в поисках новых приключений. Но однажды он встретил очаровательную девчушку из высшего общества — и мир вокруг изменился навсегда.

Видео кодек: MPEG-4 AVC
Качество: BDRip 720p
Параметры Видео: 1280x720, 23.976 fps; ~1 938 kbps avg
Параметры Звука: 48.0 KHz, AAC, ~124 Kbps avg, 2ch
Формат: mp4
Релиз:
- Мультфильм снят на основе книги Алана Сноу «Здесь живут монстры».
- Для украшения декораций фильма было использовано 55 сортов бутафорского сыра, тщательно скопированного с настоящих сырных головок.
- Лица кукол собирались из деталей, напечатанных на 3D-принтерах, и это давало аниматорам быстрый доступ к запредельному количеству вариантов мимики. У главного героя, например, было 1,4 миллиона потенциальных выражений лица.



General
Complete name : E:Semejka_monstrov.2014.D.BDRip.720p_KinoGadget.mp4
Format : MPEG-4
Format profile : Base Media
Codec ID : isom
File size : 1.39 GiB
Duration : 1h 36mn
Overall bit rate mode : Variable
Overall bit rate : 2 070 Kbps
Season : 0
Movie name : Семейка монстров
Part : 0
Performer : Грэхэм Эннэйбл, Энтони Стакки
Genre : Adventure, Animation, Comedy
ContentType : Short Film
Recorded date : 2014
Encoded date : UTC 2014-12-24 10:43:18
Tagged date : UTC 2014-12-24 14:46:46
Cover : Yes
ContentRating : mpaa|PG|200|
iTunMOVI : cast / name / Бен Кингсли / Джаред Харрис / Ник Фрост / Ричард Айоади / Трэйси Морган/ Ди Брэдли Бэйкер / Стивен Блум / Ника Футтерман / / / directors / Грэхэм Эннэйбл / Энтони Стакки / / / producers / Дэвид Блайман / Трэвис Найт /
LongDeion : Ему не повезло родиться в роскошном замке. Вместе с семейкой забавных монстров юноша поселился прямо под мостовой. Изысканные костюмы ему заменила обычная коробка. Зато каждую ночь он мог разгуливать по темным улицам в поисках новых приключений. Но однажды он встретил очаровательную девчушку из высшего общества — и мир вокруг изменился навсегда.
HDVideo : Yes
AppleStoreCatalogID : 0
Video
ID : 1
Format : AVC
Format/Info : Advanced Video Codec
Format profile : High@L4.1
Format settings, CABAC : Yes
Format settings, ReFrames : 8 frames
Codec ID : avc1
Codec ID/Info : Advanced Video Coding
Duration : 1h 36mn
Bit rate : 1 938 Kbps
Maximum bit rate : 8 704 Kbps
Width : 1 280 pixels
Height : 720 pixels
Display aspect ratio : 16:9
Frame rate mode : Constant
Frame rate : 23.976 fps
Color space : YUV
Chroma subsampling : 4:2:0
Bit depth : 8 bits
Scan type : Progressive
Bits/(Pixel*Frame) : 0.088
Stream size : 1.30 GiB (94%)
Writing library : x264 core 130 r2273 b3065e6
Encoding settings : cabac=1 / ref=8 / deblock=1:-1:-1 / analyse=0x3:0x133 / me=umh / subme=10 / psy=1 / psy_rd=1.00:0.20 / mixed_ref=1 / me_range=32 / chroma_me=1 / trellis=2 / 8x8dct=1 / cqm=0 / deadzone=21,11 / fast_pskip=0 / chroma_qp_offset=-3 / threads=3 / lookahead_threads=1 / sliced_threads=0 / nr=0 / decimate=1 / interlaced=0 / bluray_compat=0 / constrained_intra=0 / bframes=16 / b_pyramid=2 / b_adapt=2 / b_bias=0 / direct=3 / weightb=1 / open_gop=0 / weightp=2 / keyint=250 / keyint_min=23 / scenecut=40 / intra_refresh=0 / rc_lookahead=60 / rc=crf / mbtree=1 / crf=22.0 / qcomp=0.60 / qpmin=0 / qpmax=69 / qpstep=4 / ip_ratio=1.40 / aq=1:0.80
Encoded date : UTC 2014-12-24 10:43:18
Tagged date : UTC 2014-12-24 10:44:21
Audio
ID : 2
Format : AAC
Format/Info : Advanced Audio Codec
Format profile : LC
Codec ID : 40
Duration : 1h 36mn
Bit rate mode : Variable
Bit rate : 124 Kbps
Maximum bit rate : 198 Kbps
Channel count : 2 channels
Original Channel count : 6 channels
Channel positions : Front: L C R, Side: L R, LFE
Sampling rate : 48.0 KHz
Compression mode : Lossy
Delay relative to video : 125ms
Stream size : 85.1 MiB (6%)
Encoded date : UTC 2014-12-24 10:44:17
Tagged date : UTC 2014-12-24 10:44:21
Menu
ID : 3
Codec ID : text
Duration : 1h 36mn
Encoded date : UTC 2014-12-24 14:46:46
Tagged date : UTC 2014-12-24 14:46:46





   Похожие торренты   Торрент   Размер 
В этой теме нет новых непрочитанных сообщений. Семейка монстров / The Boxtrolls (2014) BDRip 720p

201 | 12

2.91 ГБ

В этой теме нет новых непрочитанных сообщений. Семейка монстров / The Boxtrolls (2014) BDRip 720p | Лицензия

187 | 6

6.01 ГБ

В этой теме нет новых непрочитанных сообщений. Семейка Монстров / The Boxtrolls (2014) BDRip 720p | дополнительные материалы

0 | 0

1.77 ГБ

В этой теме нет новых непрочитанных сообщений. Семейка монстров / The Boxtrolls (2014) BDRip 720p от KinoRay | iTunes

716 | 79

4.72 ГБ

В этой теме нет новых непрочитанных сообщений. Семейка монстров / The Boxtrolls (2014) BDRip 720p от Leonardo and Scarabey | iTunes

184 | 21

3.99 ГБ

В этой теме нет новых непрочитанных сообщений. Семейка монстров / The Boxtrolls (2014) BDRip 720p от Leonardo and Scarabey | Лицензия

141 | 20

3.73 ГБ

В этой теме нет новых непрочитанных сообщений. Семейка монстров / The Boxtrolls (2014) WEB-DL 720p | iTunes

3305 | 143

2.98 ГБ




Вы не можете начинать темы
Вы не можете отвечать на сообщения
Вы не можете редактировать свои сообщения
Вы не можете удалять свои сообщения
Вы не можете добавлять вложения

Перейти:  
Для Мосгорсуда, Роскомнадзора и рекламодателей: mosgorsud-torrent[собачка]yandex.ru
 Вход
ppkBB3cker v.2 © 2008-2014 @ PPK
[ Time : 0.521s | 17 Queries | GZIP : Off ]

Торрент трекер RUTOR.IN, Не можете зайти на rutor.org? Какой новый адрес рутор? Какое зеркало рутор? Не работает rutor.org и зеркала? Тогда наш торрент специально для вас. Rutor.in неофициальное зеркало rutor. В случае если у Вас заблокирован rutor или вдруг Вы не можете на него зайти, то Вы без труда сможете скачать бесплатно и без рекламы последние новинки кино, игр, сериалов и прочего у нас, на Rutor.in. Не нужно использовать прокси, чтобы зайти на рутор, достаточно воспользоваться нашим ресурсом. Все новые фильмы, игры, сериалы, книги и музыка за 2013 и 2014 годы через торрент бесплатно. Скачивайте фильмы в хорошем качестве, игры для пк, xbox, playstation без регистрации. У нас вы найдете новые Зарубежные сериалы и Русские сериалы 2013, 2014, 2015 годов. Оставайтесь с нами, качайте любимые фильмы, игры, сериалы, книги и музыку.