img image001 image001 image001 image001 image001 image001 image001 image001 image001 image001 image001 image001 image001 image001 image001

Planets Sun Sun Sun
Статистика раздачи
Автор: Nickolas3434 | Размер: 3.93 ГБ | Добавлен: 02 янв 2015
Раздают: 79    Качают: 14
Скачать торрент
Скачать торрент
Описание торрента

СообщениеДобавлено: 02 янв 2015 


Информация о фильме
Название: Полярный Экспресс
Оригинальное название: Polar Express
Год выхода: 2004
Жанр: Мультфильм, Фэнтази, Мюзикл, Семейный, Приключения
Режиссер: Роберт Земекис
В ролях: Том Хэнкс, Лесли Хартер Земекис, Эдди Дизен, Нона Гэй, Питер Сколари, Майкл Джитер(1952-2003), Крис Коппола, Джулин Рени и др...
О фильме:
По мотивам одноимённой книги Криса Ван Оллсбурга
Необыкновенная история о маленьком мальчике, который верит в Санта Клауса, несмотря на то, что все друзья и вся семья в один голос утверждают, что это всего лишь сказка. И однажды искренняя вера мальчика вознаграждается. В канун Рождества у его дома останавливается волшебный поезд "Полярный экспресс" и уносит мальчика в чудесное незабываемое путешествие в гости к Санта Клаусу. И пока Рождественская ночь опускается на спящий мир, пассажиры "Полярного экспресса" мчатся на Северный Полюс, встречая на своем пути приключения и опасности, подстерегающие их в темных лесах, зловещих горах и ледяной тундре…

Страна: США
Студия: Warner Bros., Castle Rock Entertainment, Shangri-La Entertainment, Playtone, ImageMovers, Golden Mean
Продолжительность: 1:39:56
Перевод: Профессиональный, дублированный(Мосфильм-Мастер) + Профессиональный, многоголосый(Киномания, Tycoon, ICTV-Україна) + Авторский, одноголосый(И.Александров, В.Королёв(ВГТРК), Е.Рудой) + English
Файл
Кодек: MKV
Качество: BDRip-AVC
Видео: 972x404 ; 2.40:1 ; 1 547 Kbps ; 23.976 fps
Звук:
№1: AC3, 5.1 channels, 640 Kbps, 48.0 KHz / DUB / Мосфильм-Мастер
№2: AC3, 5.1 channels, 384 Kbps, 48.0 KHz / MVO / Киномания
№3: AC3, 5.1 channels, 448 Kbps, 48.0 KHz / MVO / Tycoon
№4: AC3, 1 channel, 128 Kbps, 48.0 KHz / MVO / ICTV-Україна
№5: AC3, 5.1 channels, 448 Kbps, 48.0 KHz / AVO / Илья Александров
№6: AC3, 5.1 channels, 640 Kbps, 48.0 KHz / AVO / Владимир Королёв (ВГТРК)
№7: AC3, 5.1 channels, 640 Kbps, 48.0 KHz / AVO / Евгений Рудой
№8: AC3, 5.1 channels, 640 Kbps, 48.0 KHz / English
За наложение и сборку чистого голоса (перевода и озвучки Ильи Александрова) на центр английской дорожки 5.1 спасибо Данису Нурмухаметову
Субтитры: Русские, Английские
Семпл
General
Уникальный идентификатор : 228360530997493368276935585567994547854 (0xABCCA37330E13A73A6C4F659901C0E8E)
Полное имя : C:UsersАлександровDesktopФильмыДля трекеровPolar.Express.2004.BDRip-AVC.DUB.3MVO.3AVO.ENG+SUB(rus&eng).mkv
Формат : Matroska
Версия формата : Version 4 / Version 2
Размер файла : 3.93 GiB
Продолжительность : 1h 39mn
Общий поток : 5 627 Kbps
Дата кодирования : UTC 2014-12-20 10:43:05
Программа кодирования : mkvmerge v7.3.0 ('Nouages') 32bit built on Oct 22 2014 18:44:01
Библиотека кодирования : libebml v1.3.0 + libmatroska v1.4.1
DURATION : 01:39:56.512000000
NUMBER_OF_FRAMES : 187391
NUMBER_OF_BYTES : 479720960
_STATISTICS_WRITING_APP : mkvmerge v7.3.0 ('Nouages') 32bit built on Oct 22 2014 18:44:01
_STATISTICS_WRITING_DATE_UTC : 2014-12-20 10:43:05
_STATISTICS_TAGS : BPS DURATION NUMBER_OF_FRAMES NUMBER_OF_BYTES
Video
Идентификатор : 1
Формат : AVC
Формат/Информация : Advanced Video Codec
Профиль формата : High@L4.1
Параметр CABAC формата : Yes
Параметр ReFrames формата : 11 frames
Идентификатор кодека : V_MPEG4/ISO/AVC
Продолжительность : 1h 39mn
Битрейт : 1 547 Kbps
Ширина : 972 pixels
Высота : 404 pixels
Соотношение сторон : 2.40:1
Режим частоты кадров : Constant
Частота кадров : 23.976 fps
Цветовое пространство : YUV
Субдискретизация насыщенности : 4:2:0
Битовая глубина : 8 bits
Тип развёртки : Progressive
Бит/(Пиксели*Кадры) : 0.164
Размер потока : 1.08 GiB (27%)
Заголовок : NTSC, 972x404 (2.406:1), BDRip 404p - tRuAVC & Multfilmy [DFCbit]
Библиотека кодирования : x264 core 140 r2377kMod 1ca7bb9
Настройки программы : cabac=1 / ref=11 / deblock=1:-2:-2 / analyse=0x3:0x133 / me=umh / subme=11 / psy=1 / fade_compensate=0.00 / psy_rd=0.60:0.00 / mixed_ref=1 / me_range=32 / chroma_me=1 / trellis=2 / 8x8dct=1 / cqm=0 / deadzone=21,11 / fast_pskip=0 / chroma_qp_offset=-2 / threads=12 / lookahead_threads=3 / sliced_threads=0 / nr=0 / decimate=1 / interlaced=0 / bluray_compat=0 / constrained_intra=0 / fgo=0 / bframes=11 / b_pyramid=2 / b_adapt=2 / b_bias=0 / direct=1 / weightb=1 / open_gop=0 / weightp=2 / keyint=250 / keyint_min=23 / scenecut=40 / intra_refresh=0 / rc_lookahead=70 / rc=crf / mbtree=0 / crf=19.2960 / qcomp=0.80 / qpmin=0 / qpmax=69 / qpstep=4 / vbv_maxrate=25000 / vbv_bufsize=50000 / crf_max=0.0 / nal_hrd=none / filler=0 / ip_ratio=1.40 / pb_ratio=1.30 / aq=3:0.90
Язык : English
Default : Yes
Forced : No
Основные цвета : BT.709
Характеристики трансфера : BT.709
Коэффициенты матрицы : BT.709
Audio #1
Идентификатор : 4
Формат : AC-3
Формат/Информация : Audio Coding 3
Расширение режима : CM (complete main)
Параметр Endianness формата : Big
Идентификатор кодека : A_AC3
Продолжительность : 1h 39mn
Вид битрейта : Constant
Битрейт : 640 Kbps
Каналы : 6 channels
Расположение каналов : Front: L C R, Side: L R, LFE
Частота : 48.0 KHz
Битовая глубина : 16 bits
Метод сжатия : Lossy
Размер потока : 457 MiB (11%)
Заголовок : Профессиональный, дублированный - Мосфильм-мастер
Язык : Russian
Default : Yes
Forced : No
Audio #2
Идентификатор : 5
Формат : AC-3
Формат/Информация : Audio Coding 3
Расширение режима : CM (complete main)
Параметр Endianness формата : Big
Идентификатор кодека : A_AC3
Продолжительность : 1h 39mn
Вид битрейта : Constant
Битрейт : 384 Kbps
Каналы : 6 channels
Расположение каналов : Front: L C R, Side: L R, LFE
Частота : 48.0 KHz
Битовая глубина : 16 bits
Метод сжатия : Lossy
Размер потока : 274 MiB (7%)
Заголовок : Профессиональный, многоголосый - Киномания
Язык : Russian
Default : No
Forced : No
Audio #3
Идентификатор : 6
Формат : AC-3
Формат/Информация : Audio Coding 3
Расширение режима : CM (complete main)
Параметр Endianness формата : Big
Идентификатор кодека : A_AC3
Продолжительность : 1h 39mn
Вид битрейта : Constant
Битрейт : 448 Kbps
Каналы : 6 channels
Расположение каналов : Front: L C R, Side: L R, LFE
Частота : 48.0 KHz
Битовая глубина : 16 bits
Метод сжатия : Lossy
Размер потока : 320 MiB (8%)
Заголовок : Профессиональный, многоголосый - Tycoon
Язык : Russian
Default : No
Forced : No
Audio #4
Идентификатор : 7
Формат : AC-3
Формат/Информация : Audio Coding 3
Расширение режима : CM (complete main)
Параметр Endianness формата : Big
Идентификатор кодека : A_AC3
Продолжительность : 1h 39mn
Вид битрейта : Constant
Битрейт : 128 Kbps
Каналы : 1 channel
Расположение каналов : Front: C
Частота : 48.0 KHz
Битовая глубина : 16 bits
Метод сжатия : Lossy
Размер потока : 91.5 MiB (2%)
Заголовок : Профессиональный, многоголосый - ICTV
Язык : Ukrainian
Default : No
Forced : No
Audio #5
Идентификатор : 8
Формат : AC-3
Формат/Информация : Audio Coding 3
Расширение режима : CM (complete main)
Параметр Endianness формата : Big
Идентификатор кодека : A_AC3
Продолжительность : 1h 39mn
Вид битрейта : Constant
Битрейт : 448 Kbps
Каналы : 6 channels
Расположение каналов : Front: L C R, Side: L R, LFE
Частота : 48.0 KHz
Битовая глубина : 16 bits
Метод сжатия : Lossy
Размер потока : 320 MiB (8%)
Заголовок : Авторский, одноголосый - Илья Александров
Язык : Russian
Default : No
Forced : No
Audio #6
Идентификатор : 9
Формат : AC-3
Формат/Информация : Audio Coding 3
Расширение режима : CM (complete main)
Параметр Endianness формата : Big
Идентификатор кодека : A_AC3
Продолжительность : 1h 39mn
Вид битрейта : Constant
Битрейт : 640 Kbps
Каналы : 6 channels
Расположение каналов : Front: L C R, Side: L R, LFE
Частота : 48.0 KHz
Битовая глубина : 16 bits
Метод сжатия : Lossy
Размер потока : 457 MiB (11%)
Заголовок : Авторский, одноголосый - Владимир Королёв
Язык : Russian
Default : No
Forced : No
Audio #7
Идентификатор : 10
Формат : AC-3
Формат/Информация : Audio Coding 3
Расширение режима : CM (complete main)
Параметр Endianness формата : Big
Идентификатор кодека : A_AC3
Продолжительность : 1h 39mn
Вид битрейта : Constant
Битрейт : 640 Kbps
Каналы : 6 channels
Расположение каналов : Front: L C R, Side: L R, LFE
Частота : 48.0 KHz
Битовая глубина : 16 bits
Метод сжатия : Lossy
Размер потока : 457 MiB (11%)
Заголовок : Авторский, одноголосый - Евгений Рудой
Язык : Russian
Default : No
Forced : No
Audio #8
Идентификатор : 11
Формат : AC-3
Формат/Информация : Audio Coding 3
Расширение режима : CM (complete main)
Параметр Endianness формата : Big
Идентификатор кодека : A_AC3
Продолжительность : 1h 39mn
Вид битрейта : Constant
Битрейт : 640 Kbps
Каналы : 6 channels
Расположение каналов : Front: L C R, Side: L R, LFE
Частота : 48.0 KHz
Битовая глубина : 16 bits
Метод сжатия : Lossy
Размер потока : 457 MiB (11%)
Заголовок : Original
Язык : English
Default : No
Forced : No
Text #1
Идентификатор : 2
Формат : UTF-8
Идентификатор кодека : S_TEXT/UTF8
Идентификатор кодека/Информация : UTF-8 Plain Text
Заголовок : English
Язык : English
Default : No
Forced : No
Text #2
Идентификатор : 3
Формат : UTF-8
Идентификатор кодека : S_TEXT/UTF8
Идентификатор кодека/Информация : UTF-8 Plain Text
Заголовок : Русский
Язык : Russian
Default : No
Forced : No

Релиз от: Alexandrov1994



   Похожие торренты   Торрент   Размер 
В этой теме нет новых непрочитанных сообщений. Полярный Экспресс / The Polar Express (2004) BDRip-AVC от ExKinoRay | D

310 | 9

2.44 ГБ

В этой теме нет новых непрочитанных сообщений. Полярный экспресс / The Polar Express (2004) BDRip от HQCLUB

978 | 39

1.45 ГБ

В этой теме нет новых непрочитанных сообщений. Полярный экспресс / The Polar Express (2004) BDRip 1080p

218 | 125

4.37 ГБ

В этой теме нет новых непрочитанных сообщений. Полярный экспресс 3Д / The Polar Express 3D (2004) BDRip 1080p | 3D

25 | 9

10.02 ГБ

В этой теме нет новых непрочитанных сообщений. Полярный Экспресс / The Polar Express (2004) BDRip 720p

19 | 9

4.38 ГБ

В этой теме нет новых непрочитанных сообщений. Полярный экспресс / The Polar Express (2004) BDRip 1080

15 | 5

6.87 ГБ

В этой теме нет новых непрочитанных сообщений. Полярный экспресс 3Д / The Polar Express 3D (2004) BDRip 720p | 3D

16 | 4

3.54 ГБ




Вы не можете начинать темы
Вы не можете отвечать на сообщения
Вы не можете редактировать свои сообщения
Вы не можете удалять свои сообщения
Вы не можете добавлять вложения

Перейти:  
Для Мосгорсуда, Роскомнадзора и рекламодателей: mosgorsud-torrent[собачка]yandex.ru
 Вход
ppkBB3cker v.2 © 2008-2014 @ PPK
[ Time : 0.029s | 14 Queries | GZIP : Off ]

Торрент трекер RUTOR.IN, Не можете зайти на rutor.org? Какой новый адрес рутор? Какое зеркало рутор? Не работает rutor.org и зеркала? Тогда наш торрент специально для вас. Rutor.in неофициальное зеркало rutor. В случае если у Вас заблокирован rutor или вдруг Вы не можете на него зайти, то Вы без труда сможете скачать бесплатно и без рекламы последние новинки кино, игр, сериалов и прочего у нас, на Rutor.in. Не нужно использовать прокси, чтобы зайти на рутор, достаточно воспользоваться нашим ресурсом. Все новые фильмы, игры, сериалы, книги и музыка за 2013 и 2014 годы через торрент бесплатно. Скачивайте фильмы в хорошем качестве, игры для пк, xbox, playstation без регистрации. У нас вы найдете новые Зарубежные сериалы и Русские сериалы 2013, 2014, 2015 годов. Оставайтесь с нами, качайте любимые фильмы, игры, сериалы, книги и музыку.