img image001 image001 image001 image001 image001 image001 image001 image001 image001 image001 image001 image001 image001 image001 image001

Planets Sun Sun Sun
Статистика раздачи
Автор: Nickolas3434 | Размер: 2.18 ГБ | Добавлен: 05 янв 2015
Раздают: 267    Качают: 10
Скачать торрент
Скачать торрент
Описание торрента

СообщениеДобавлено: 05 янв 2015 

Последняя фантазия / Final Fantasy: The Spirits Within

«No more fairy tales, this is reality»

Русское название: Последняя фантазия: Духи внутри
Оригинальное название: Final Fantasy: The Spirits Within
Год выпуска: 2001
Жанр: мультфильм, фантастика, фэнтези, боевик, приключения
Выпущено: США, Япония
Режиссер: Хиронобу Сакагути / Hironobu Sakaguchi, Мото Сакакибара / Moto Sakakibara
В ролях: Минг-На , Алек Болдуин , Винг Реймз , Стив Бушеми , Пери Гилпин , Дональд Сазерленд , Джеймс Вудс , Кит Дэвид , Джин Симмонс , Мэтт МакКензи , Мэтт Адлер , Стив Альтерман
Перевод: Дублированный - [Лицензия]

Сюжет фильма:
Земля, год 2065... Планета в страшной опасности. На родину человечества напали монстры-фантомы из космоса, которым невозможно противостоять. Полупрозрачные чудовища, более похожие на порождения галлюцинирующего мозга, уже истребили большую часть человечества и скоро их господство над Землей станет полным.
Судьба мира в руках горстки смельчаков - ученой Аки Росс, доктора Сиди и техноспецназа капитана Эдвардса, вступающих в последнее сражение с инопланетной нечистью.

Качество: HDRip-AVC
Формат: AVC (библиотека кодирования x.264)
Контейнер (Расширение): MKV
Видео: 1024x554 (16:9), 2500 Кбит/сек, 23,976 кадр/сек, 0,184 Бит/[Пиксели*Кадры]
Аудио: русский / AC3 / 5.1 / 48 kHz / 448 kbps / 16 bit |Дублированный|
Субтитры: русские (Русские форсированные), русские (Русские (Вита Алая))
Навигация по главам(Чаптеры): есть
Продолжительность: 01:45:58
Автор рипа: Сообщество:

Format : Matroska
Format version : Version 2
File size : 2.18 GiB
Duration : 1h 45mn
Overall bit rate : 2 943 Kbps
Movie name : Poslednjaja fantazija: Duhi vnutri.(2001).HDRip-AVC.[denis100]
Encoded date : UTC 2015-01-04 09:30:15
Writing application : mkvmerge v5.8.0 ('No Sleep / Pillow') built on Sep 2 2012 15:37:04
Writing library : libebml v1.2.3 + libmatroska v1.3.0
Video
ID : 1
Format : AVC
Format/Info : Advanced Video Codec
Format profile : High@L4.1
Format settings, CABAC : Yes
Format settings, ReFrames : 11 frames
Codec ID : V_MPEG4/ISO/AVC
Duration : 1h 45mn
Bit rate : 2 500 Kbps
Width : 1 024 pixels
Height : 554 pixels
Display aspect ratio : 16:9
Frame rate : 23.976 fps
Color space : YUV
Chroma subsampling : 4:2:0
Bit depth : 8 bits
Scan type : Progressive
Bits/(Pixel*Frame) : 0.184
Stream size : 1.80 GiB (83%)
Title : Poslednjaja fantazija: Duhi vnutri.(2001).HDRip-AVC.[denis100]
Writing library : x264 core 142 r2491 24e4fed
Encoding settings : cabac=1 / ref=11 / deblock=1:0:0 / analyse=0x3:0x133 / me=umh / subme=11 / psy=1 / psy_rd=1.00:0.10 / mixed_ref=1 / me_range=32 / chroma_me=1 / trellis=2 / 8x8dct=1 / cqm=0 / deadzone=21,11 / fast_pskip=0 / chroma_qp_offset=-3 / threads=6 / lookahead_threads=1 / sliced_threads=0 / nr=0 / decimate=1 / interlaced=0 / bluray_compat=0 / constrained_intra=0 / bframes=9 / b_pyramid=2 / b_adapt=2 / b_bias=0 / direct=3 / weightb=1 / open_gop=0 / weightp=2 / keyint=240 / keyint_min=23 / scenecut=40 / intra_refresh=0 / rc=2pass / mbtree=0 / bitrate=2500 / ratetol=1.0 / qcomp=0.60 / qpmin=0 / qpmax=69 / qpstep=4 / cplxblur=20.0 / qblur=0.5 / ip_ratio=1.40 / pb_ratio=1.30 / aq=1:1.00
Language : English
Default : Yes
Forced : No
Audio
ID : 2
Format : AC-3
Format/Info : Audio Coding 3
Mode extension : CM (complete main)
Codec ID : A_AC3
Duration : 1h 45mn
Bit rate mode : Constant
Bit rate : 448 Kbps
Channel(s) : 6 channels
Channel positions : Front: L C R, Side: L R, LFE
Sampling rate : 48.0 KHz
Bit depth : 16 bits
Compression mode : Lossy
Stream size : 340 MiB (15%)
Title : Дублированный
Language : Russian
Default : Yes
Forced : No
Text #1
ID : 3
Format : UTF-8
Codec ID : S_TEXT/UTF8
Codec ID/Info : UTF-8 Plain Text
Title : Русские форсированные
Language : Russian
Default : Yes
Forced : No
Text #2
ID : 4
Format : UTF-8
Codec ID : S_TEXT/UTF8
Codec ID/Info : UTF-8 Plain Text
Title : Русские (Вита Алая)
Language : Russian
Default : No
Forced : No
Menu
00:00:00.000 : en:00:00:00.000
00:10:02.101 : en:00:10:02.101
00:13:08.746 : en:00:13:08.746
00:17:28.380 : en:00:17:28.380
00:21:06.682 : en:00:21:06.682
00:27:43.078 : en:00:27:43.078
00:34:57.178 : en:00:34:57.178
00:41:22.271 : en:00:41:22.271
00:46:38.045 : en:00:46:38.045
00:52:41.908 : en:00:52:41.908
00:58:09.444 : en:00:58:09.444
01:03:28.721 : en:01:03:28.721
01:13:36.328 : en:01:13:36.328
01:18:43.260 : en:01:18:43.260
01:23:36.094 : en:01:23:36.094
01:30:28.464 : en:01:30:28.464



   Похожие торренты   Торрент   Размер 
В этой теме нет новых непрочитанных сообщений. Последняя фантазия: Духи внутри / Final Fantasy: The Spirits Within (2001) BDRip | D, P, P2, A

131 | 25

1.16 ГБ

В этой теме нет новых непрочитанных сообщений. Последняя фантазия: Духи внутри / Final Fantasy: The Spirits Within (2001) BDRip от HQCLUB

193 | 37

2.18 ГБ

В этой теме нет новых непрочитанных сообщений. Последняя фантазия: Духи внутри / Final Fantasy: The Spirits Within (2001) BDRip-AVC | iPhone | P

90 | 8

1.62 ГБ

В этой теме нет новых непрочитанных сообщений. Последняя фантазия: Духи внутри / Final Fantasy: The Spirits Within (2001) DVDRip | Гоблин

46 | 8

1.37 ГБ

В этой теме нет новых непрочитанных сообщений. Последняя фантазия: Духи внутри / Final Fantasy: The Spirits Within (2001) BDRip 720p | D, P, P2, A | 60 fps

133 | 34

12.07 ГБ

В этой теме нет новых непрочитанных сообщений. Последняя фантазия: Духи внутри нас / Final Fantasy: The Spirits Within (2001) BDRip от HELLYWOOD

62 | 3

2.51 ГБ

В этой теме нет новых непрочитанных сообщений. Последняя фантазия: Духи внутри / Final Fantasy: The Spirits Within (2001) BDRip 720p от FREEISLAND

13 | 3

6.74 ГБ




Вы не можете начинать темы
Вы не можете отвечать на сообщения
Вы не можете редактировать свои сообщения
Вы не можете удалять свои сообщения
Вы не можете добавлять вложения

Перейти:  
Для Мосгорсуда, Роскомнадзора и рекламодателей: mosgorsud-torrent[собачка]yandex.ru
 Вход
ppkBB3cker v.2 © 2008-2014 @ PPK
[ Time : 0.023s | 15 Queries | GZIP : Off ]

Торрент трекер RUTOR.IN, Не можете зайти на rutor.org? Какой новый адрес рутор? Какое зеркало рутор? Не работает rutor.org и зеркала? Тогда наш торрент специально для вас. Rutor.in неофициальное зеркало rutor. В случае если у Вас заблокирован rutor или вдруг Вы не можете на него зайти, то Вы без труда сможете скачать бесплатно и без рекламы последние новинки кино, игр, сериалов и прочего у нас, на Rutor.in. Не нужно использовать прокси, чтобы зайти на рутор, достаточно воспользоваться нашим ресурсом. Все новые фильмы, игры, сериалы, книги и музыка за 2013 и 2014 годы через торрент бесплатно. Скачивайте фильмы в хорошем качестве, игры для пк, xbox, playstation без регистрации. У нас вы найдете новые Зарубежные сериалы и Русские сериалы 2013, 2014, 2015 годов. Оставайтесь с нами, качайте любимые фильмы, игры, сериалы, книги и музыку.