img image001 image001 image001 image001 image001 image001 image001 image001 image001 image001 image001 image001 image001 image001 image001

Planets Sun Sun Sun
Статистика раздачи
Автор: Nickolas3434 | Размер: 2.36 ГБ | Добавлен: 06 янв 2015
Раздают: 217    Качают: 10
Скачать торрент
Скачать торрент
Описание торрента

СообщениеДобавлено: 06 янв 2015 

Микки: Однажды под Рождество / Mickey's Once Upon a Christmas


Год выпуска: 1999
Страна: США
Производство: Walt Disney Pictures
Жанр: мультфильм, фэнтези, комедия, семейный
Продолжительность: 01:05:53
Перевод: Профессиональный (полное дублирование) [Лицензия С DVD5]
Субтитры: Отсутствуют
Режиссер: Джан Фалкенштейн / Jun Falkenstein, Алекс Манн / Alex Mann, Брэдли Рэймонд / Bradley Raymond
Сценарий: Чарли Коэн / Charlie Cohen, Скотт Горден / Scott Gorden, Томас Р. Нэнс / Thomas R. Nance, Картер Крокер / Carter Crocker, Ричард Крэй / Richard Cray
Композитор: Дж. Эрик Шмидт / J. Eric Schmidt
В ролях: Келси Грэммер (рассказчик, озвучка), Уэйн Оллвэйн (Mickey Mouse, озвучка), Расси Тейлор (Minnie Mouse, Huey, Dewey, Louie, озвучка), Тони Ансельмо (Donald Duck, озвучка), Дайан Мишель (Daisy Duck (The Gift of Magi), озвучка), Тресс МакНилл (Chip, Daisy, Aunt Gurtie, озвучка), Алан Янг (Uncle Scrooge McDuck, озвучка), Билл Фармер (Goofy, Pluto, озвучка), Кори Бертон (Dale, озвучка), Шон Флемминг (Young Max Goof, озвучка), Джим Каммингс (Pete, Postman, Santa, Police, Fire Chief, Dad, Man, озвучка), Джефф Беннетт (Mortimer, Firefighter #2, Store Announcer, Man, Customer, Dad, озвучка)
Роли дублировали: Геннадий Богачёв (рассказчик), Максим Сергеев (Mickey Mouse), Снежина Копрова (Huey / Dewey / Louie; Daisy), Сауле Искакова (Minnie Mouse), Елена Ставрогина (Chip, Daisy, Aunt Gurtie (Aunt Gurtie)), Валерий Кухарешин (Uncle Scrooge McDuck), Михаил Вассербаум (Goofy), Станислав Ревазов (Young Max Goof), Вадим Никитин (Pete), Александр Баргман (Mortimer)
Мировая премьера: 7 декабря 1999
Описание: Микки, Минни и их знаменитые друзья Гуфи, Дональд, Дейзи и Плуто собираются вместе, чтобы рассказать в трех удивительных историях о волшебстве Рождества.
Мини и Микки расскажут о том, как однажды решили подарить друг другу незабываемое Рождество. Гуфи и Макс поделятся впечатлениями о своих рождественских приключениях, а еще о том, как к ним в гости пришел настоящий Санта Клаус.
Племянники Дональда, Хьюи, Дьюи и Лун вспоминают те дни, когда они мечтали о наступлении Рождества каждый день, что, в конце концов, привело к веселой катастрофе.

Формат: MKV
Качество BDRip 720 [BluRay.x264-HDEX]
Видео: AVC, 1280x720 (16:9), 23.976 fps, 3 249 Kbps (0.147 bit/pixel)
Аудио #1 AC-3, 48.0 KHz, 6 ch, 384 Kbps, CBR (Russian)
Аудио #2: DTS, 48.0 KHz, 6 ch, 1 510 Kbps, CBR (English)
Субтитры Английские (в раздаче) , Русские полные + надписи Отдельно
M1k1.0dnaghn1.p0d.r0ghdestv0.D.1999.BDRip.720.Deadmauvlad.mkv
Формат : Matroska
Версия формата : Version 4 / Version 2
Размер файла : 2,36 Гбайт
Продолжительность : 1 ч. 5 м.
Общий поток : 5141 Кбит/сек
Дата кодирования : UTC 2015-01-05 10:45:30
Программа кодирования : mkvmerge v6.1.0 ('Old Devil') built on Mar 4 2013 09:10:42
Библиотека кодирования : libebml v1.3.0 + libmatroska v1.4.0
DURATION : 01:03:13.789000000
NUMBER_OF_FRAMES : 1000
NUMBER_OF_BYTES : 29360
_STATISTICS_WRITING_APP : mkvmerge v7.4.0 ('Circles') 64bit built on Dec 12 2014 12:19:56
_STATISTICS_WRITING_DATE_UTC : 2015-01-03 17:46:32
_STATISTICS_TAGS : BPS DURATION NUMBER_OF_FRAMES NUMBER_OF_BYTES
Видео
Идентификатор : 1
Формат : AVC
Формат/Информация : Advanced Video Codec
Профиль формата : High@L4.1
Параметр CABAC формата : Да
Параметр ReFrames формата : 5 кадров
Идентификатор кодека : V_MPEG4/ISO/AVC
Продолжительность : 1 ч. 5 м.
Битрейт : 3249 Кбит/сек
Ширина : 1280 пикселей
Высота : 720 пикселей
Соотношение сторон : 16:9
Режим частоты кадров : Постоянный
Частота кадров : 23,976 кадра/сек
Цветовое пространство : YUV
Субдискретизация насыщенности : 4:2:0
Битовая глубина : 8 бит
Тип развёртки : Прогрессивная
Бит/(Пиксели*Кадры) : 0.147
Размер потока : 1,45 Гбайт (61%)
Заголовок : Reliz Deadmauvlad BDRip 720 by HDEX
Библиотека кодирования : x264 core 142 r2491 24e4fed
Настройки программы : cabac=1 / ref=5 / deblock=1:0:0 / analyse=0x3:0x113 / me=umh / subme=8 / psy=1 / psy_rd=1.00:0.00 / mixed_ref=1 / me_range=16 / chroma_me=1 / trellis=1 / 8x8dct=1 / cqm=0 / deadzone=21,11 / fast_pskip=1 / chroma_qp_offset=-2 / threads=12 / lookahead_threads=2 / sliced_threads=0 / nr=0 / decimate=1 / interlaced=0 / bluray_compat=0 / constrained_intra=0 / bframes=3 / b_pyramid=2 / b_adapt=2 / b_bias=0 / direct=3 / weightb=1 / open_gop=0 / weightp=2 / keyint=240 / keyint_min=24 / scenecut=40 / intra_refresh=0 / rc_lookahead=50 / rc=2pass / mbtree=1 / bitrate=3249 / ratetol=1.0 / qcomp=0.60 / qpmin=0 / qpmax=69 / qpstep=4 / cplxblur=20.0 / qblur=0.5 / ip_ratio=1.40 / aq=1:1.00
Язык : English
Default : Да
Forced : Нет
DURATION : 01:05:45.108000000
NUMBER_OF_FRAMES : 94588
NUMBER_OF_BYTES : 1602422951
_STATISTICS_WRITING_APP : mkvmerge v7.4.0 ('Circles') 64bit built on Dec 12 2014 12:19:56
_STATISTICS_WRITING_DATE_UTC : 2015-01-03 17:46:32
_STATISTICS_TAGS : BPS DURATION NUMBER_OF_FRAMES NUMBER_OF_BYTES
Аудио #1
Идентификатор : 2
Формат : AC-3
Формат/Информация : Audio Coding 3
Расширение режима : CM (complete main)
Параметр Endianness формата : Big
Идентификатор кодека : A_AC3
Продолжительность : 1 ч. 5 м.
Вид битрейта : Постоянный
Битрейт : 384 Кбит/сек
Каналы : 6 каналов
Расположение каналов : Front: L C R, Side: L R, LFE
Частота : 48,0 КГц
Битовая глубина : 16 бит
Метод сжатия : С потерями
Задержка видео : 420 мс.
Размер потока : 181 Мбайт (7%)
Заголовок : Дубляж [R5] Лицензия
Язык : Russian
Default : Да
Forced : Нет
Аудио #2
Идентификатор : 3
Формат : DTS
Формат/Информация : Digital Theater Systems
Режим : 16
Параметр Endianness формата : Big
Идентификатор кодека : A_DTS
Продолжительность : 1 ч. 5 м.
Вид битрейта : Постоянный
Битрейт : 1509 Кбит/сек
Каналы : 6 каналов
Расположение каналов : Front: L C R, Side: L R, LFE
Частота : 48,0 КГц
Битовая глубина : 24 бит
Метод сжатия : С потерями
Размер потока : 711 Мбайт (29%)
Заголовок : English
Язык : English
Default : Нет
Forced : Нет
Текст
Идентификатор : 4
Формат : UTF-8
Идентификатор кодека : S_TEXT/UTF8
Идентификатор кодека/Информация : UTF-8 Plain Text
Заголовок : English
Язык : English
Default : Да
Forced : Нет
Меню
00:00:00.000 : en:00:00:00.000
00:01:00.060 : en:00:01:00.060
00:05:34.543 : en:00:05:34.543
00:06:16.960 : en:00:06:16.960
00:11:05.081 : en:00:11:05.081
00:13:08.830 : en:00:13:08.830
00:18:56.510 : en:00:18:56.510
00:23:20.566 : en:00:23:20.566
00:29:07.913 : en:00:29:07.913
00:32:06.216 : en:00:32:06.216
00:36:56.506 : en:00:36:56.506
00:41:00.708 : en:00:41:00.708
00:44:30.501 : en:00:44:30.501
00:48:30.491 : en:00:48:30.491
00:50:41.956 : en:00:50:41.956
00:56:26.174 : en:00:56:26.174
00:58:15.242 : en:00:58:15.242
01:00:11.191 : en:01:00:11.191


ЦитатаКто-то писал:

Исходный DVD5 с которого был взят звук куплен за собственные средства.
[*]Тайминг Deadmauvlad & Den4ik



   Похожие торренты   Торрент   Размер 
В этой теме нет новых непрочитанных сообщений. Микки: Однажды под Рождество / Mickey's Once Upon a Christmas (1999) WEB-DLRip от Deadmauvlad | D | Лицензия

162 | 43

746.39 МБ

В этой теме нет новых непрочитанных сообщений. Микки: Однажды под Рождество / Mickey's Once Upon a Christmas (1999) DVDRip

63 | 3

1.37 ГБ

В этой теме нет новых непрочитанных сообщений. Микки: Однажды под Рождество / Mickey's Once Upon a Christmas (1999) WEB-DL 720p от HDCLUB

68 | 32

2.16 ГБ

В этой теме нет новых непрочитанных сообщений. Микки. Однажды под рождество / Mickey's Once Upon a Christmas (1999) HDRip от Koenig | D

4 | 0

1.09 ГБ

В этой теме нет новых непрочитанных сообщений. Веселое Рождество у Микки / Mickey's Christmas Carol (1983) DVDRip

32 | 6

375.61 МБ

В этой теме нет новых непрочитанных сообщений. Волшебное Рождество у Микки: Запертые снегом в мышином доме / Mickey's Magical Christmas: Snowed in at the House of Mouse (2001) DVD5

7 | 5

3.47 ГБ

В этой теме нет новых непрочитанных сообщений. Волшебное Рождество у Микки: Запертые снегом в мышином доме / Mickey's Magical Christmas: Snowed in at the House of Mouse (2001) DVDRip

39 | 7

1.37 ГБ




Вы не можете начинать темы
Вы не можете отвечать на сообщения
Вы не можете редактировать свои сообщения
Вы не можете удалять свои сообщения
Вы не можете добавлять вложения

Перейти:  
Для Мосгорсуда, Роскомнадзора и рекламодателей: mosgorsud-torrent[собачка]yandex.ru
 Вход
ppkBB3cker v.2 © 2008-2014 @ PPK
[ Time : 0.042s | 16 Queries | GZIP : Off ]

cron