img image001 image001 image001 image001 image001 image001 image001 image001 image001 image001 image001 image001 image001 image001 image001

Planets Sun Sun Sun
Статистика раздачи
Автор: Nickolas3434 | Размер: 1.42 ГБ | Добавлен: 10 янв 2015
Раздают: 289    Качают: 11
Скачать торрент
Скачать торрент
Описание торрента

СообщениеДобавлено: 10 янв 2015 

Год выпуска: 2014
Страна: Австралия, Германия
Жанр: мультфильм, фэнтези, приключения
Продолжительность: 01:28:10
Перевод: Дублированный
Режиссер: Алекс Стадерманн
В ролях: Нина Шаттон, Коди Смит-МакФи, Ноа Тейлор, Джеки Уивер, Ричард Роксбург, Мириам Маргулис, Джастин Кларк, Энди МакФи, Косма Шива Хаген, Коко Джек Гиллис
Описание: Легендарная пчелка доросла до большого экрана. В улье на свет появилась пчелка, которая выделяется из общей массы: она озорная, любопытная, не может держать рот на замке и постоянно рвется на поиски приключений. И вот, её любознательность довела до того, что она была изгнана из улья. Поэтому Майя пытается найти свое место среди других насекомых...

Видео кодек: MPEG-4 AVC
Качество: BDRip 720p
Параметры Видео: 1280x688, 23.976 fps; ~2 114 kbps avg
Параметры Звука: 48.0 KHz, AAC, ~192.00 kbps avg, 2ch
Формат: mp4
Релиз:


General
Complete name : E:Pchyolka_Majya.2014.D.BDRip.720p_KinoGadget.mp4
Format : MPEG-4
Format profile : Base Media
Codec ID : isom
File size : 1.42 GiB
Duration : 1h 28mn
Overall bit rate mode : Variable
Overall bit rate : 2 313 Kbps
Movie name : Пчёлка Майя
Performer : Алекс Стадерманн
Genre : Adventure, Animation, Comedy
ContentType : Short Film
Recorded date : 2014
Encoded date : UTC 2015-01-09 08:51:56
Tagged date : UTC 2015-01-09 15:09:14
Cover : Yes
ContentRating : mpaa|G|100|
LongDeion : Легендарная пчелка доросла до большого экрана. В улье на свет появилась пчелка, которая выделяется из общей массы: она озорная, любопытная, не может держать рот на замке и постоянно рвется на поиски приключений. И вот, её любознательность довела до того, что она была изгнана из улья. Поэтому Майя пытается найти свое место среди других насекомых...
HDVideo : Yes
Video
ID : 1
Format : AVC
Format/Info : Advanced Video Codec
Format profile : High@L4.1
Format settings, CABAC : Yes
Format settings, ReFrames : 8 frames
Codec ID : avc1
Codec ID/Info : Advanced Video Coding
Duration : 1h 28mn
Bit rate : 2 114 Kbps
Maximum bit rate : 6 508 Kbps
Width : 1 280 pixels
Height : 688 pixels
Display aspect ratio : 1.85:1
Frame rate mode : Constant
Frame rate : 23.976 fps
Color space : YUV
Chroma subsampling : 4:2:0
Bit depth : 8 bits
Scan type : Progressive
Bits/(Pixel*Frame) : 0.100
Stream size : 1.30 GiB (91%)
Writing library : x264 core 130 r2273 b3065e6
Encoding settings : cabac=1 / ref=8 / deblock=1:-1:-1 / analyse=0x3:0x133 / me=umh / subme=10 / psy=1 / psy_rd=1.00:0.20 / mixed_ref=1 / me_range=32 / chroma_me=1 / trellis=2 / 8x8dct=1 / cqm=0 / deadzone=21,11 / fast_pskip=0 / chroma_qp_offset=-3 / threads=3 / lookahead_threads=1 / sliced_threads=0 / nr=0 / decimate=1 / interlaced=0 / bluray_compat=0 / constrained_intra=0 / bframes=16 / b_pyramid=2 / b_adapt=2 / b_bias=0 / direct=3 / weightb=1 / open_gop=0 / weightp=2 / keyint=250 / keyint_min=23 / scenecut=40 / intra_refresh=0 / rc_lookahead=60 / rc=crf / mbtree=1 / crf=22.0 / qcomp=0.60 / qpmin=0 / qpmax=69 / qpstep=4 / ip_ratio=1.40 / aq=1:2.00
Encoded date : UTC 2015-01-09 08:51:56
Tagged date : UTC 2015-01-09 08:52:58
Audio
ID : 2
Format : AAC
Format/Info : Advanced Audio Codec
Format profile : LC
Codec ID : 40
Duration : 1h 28mn
Bit rate mode : Variable
Bit rate : 192 Kbps
Maximum bit rate : 335 Kbps
Channel count : 2 channels
Original Channel count : 6 channels
Channel positions : Front: L C R, Side: L R, LFE
Sampling rate : 48.0 KHz
Compression mode : Lossy
Delay relative to video : 125ms
Stream size : 120 MiB (8%)
Encoded date : UTC 2015-01-09 08:52:53
Tagged date : UTC 2015-01-09 08:52:58





   Похожие торренты   Торрент   Размер 
В этой теме нет новых непрочитанных сообщений. Пчёлка Майя / Maya the Bee Movie (2014) BDRip 720p | iTunes

353 | 26

3.4 ГБ

В этой теме нет новых непрочитанных сообщений. Пчёлка Майя / Maya The Bee – Movie (2014) BDRip от New-Team | D

351 | 51

1.46 ГБ

В этой теме нет новых непрочитанных сообщений. Пчёлка Майя / Maya The Bee - Movie (2014) BDRip от MediaClub | D

468 | 34

745.4 МБ

В этой теме нет новых непрочитанных сообщений. Пчёлка Майя / Maya The Bee – Movie (2014) BDRip 1080p от NNNB

262 | 37

5.76 ГБ

В этой теме нет новых непрочитанных сообщений. Пчёлка Майя / Maya the Bee Movie (2014) BDRip-AVC | Чистый звук

904 | 62

1.81 ГБ

В этой теме нет новых непрочитанных сообщений. Пчёлка Майя / Maya The Bee – Movie (2014) BDRip 1080p | iTunes

499 | 35

4.13 ГБ

В этой теме нет новых непрочитанных сообщений. Пчёлка Майя / Maya the Bee Movie (2014) BDRip 1080p | Чистый звук

558 | 30

4.13 ГБ




Вы не можете начинать темы
Вы не можете отвечать на сообщения
Вы не можете редактировать свои сообщения
Вы не можете удалять свои сообщения
Вы не можете добавлять вложения

Перейти:  
Для Мосгорсуда, Роскомнадзора и рекламодателей: mosgorsud-torrent[собачка]yandex.ru
 Вход
ppkBB3cker v.2 © 2008-2014 @ PPK
[ Time : 0.054s | 15 Queries | GZIP : Off ]

Торрент трекер RUTOR.IN, Не можете зайти на rutor.org? Какой новый адрес рутор? Какое зеркало рутор? Не работает rutor.org и зеркала? Тогда наш торрент специально для вас. Rutor.in неофициальное зеркало rutor. В случае если у Вас заблокирован rutor или вдруг Вы не можете на него зайти, то Вы без труда сможете скачать бесплатно и без рекламы последние новинки кино, игр, сериалов и прочего у нас, на Rutor.in. Не нужно использовать прокси, чтобы зайти на рутор, достаточно воспользоваться нашим ресурсом. Все новые фильмы, игры, сериалы, книги и музыка за 2013 и 2014 годы через торрент бесплатно. Скачивайте фильмы в хорошем качестве, игры для пк, xbox, playstation без регистрации. У нас вы найдете новые Зарубежные сериалы и Русские сериалы 2013, 2014, 2015 годов. Оставайтесь с нами, качайте любимые фильмы, игры, сериалы, книги и музыку.