img image001 image001 image001 image001 image001 image001 image001 image001 image001 image001 image001 image001 image001 image001 image001

Planets Sun Sun Sun
Статистика раздачи
Автор: Nickolas3434 | Размер: 3.06 ГБ | Добавлен: 11 янв 2015
Раздают: 296    Качают: 52
Скачать торрент
Скачать торрент
Описание торрента

СообщениеДобавлено: 11 янв 2015 

Информация о фильме
Название: Смертельная битва
Оригинальное название: Mortal Kombat
Год выхода: 2011
Жанр: мультфильм, фэнтези, боевик, триллер, приключения, игрофильм
Режиссер: Доминик Чьянчьоло
В ролях: Терренс «Т.К.» Карсон, Мэттью Мерсер, Карен Страссман, Майкл Патрик Джэнн, Лани Минелла, Майкл МакКоннохи, Ричард Эпкар…
О фильме:
Фильм не станет продолжать сюжет первых двух фильмов, а «перезагрузит» его, рассказав всё с чистого листа. Как и прежде, действие фильма развернется вокруг одноименного турнира, на который сошлись лучшие бойцы мира.

Страна: США
Студия: NetherRealm Studios, Warner Bros. Interactive Entertainment (WBIE)
Продолжительность: 01:56:12
Перевод: Любительский (двухголосый)
Файл
Кодек: MPEG-4 AVC (MKV)
Качество: WEBRip 720p
Видео: AVC, 1280x720, 3432 Kbps
Звук: AC3, 2 ch, 256 Kbps
Субтитры: русские (не отключаемые)
Семпл
General
Unique ID : 180727748095073054679908960996376989124 (0x87F6E5EF5F93CF538C7114E9C8B84DC4)
Complete name : H:ДИСК 3\04.МУЛЬТФИЛЬМЫСмертельная битва Mortal KombatНовая папкаMortal Kombat (2011) WEBRip 720p.mkv
Format : Matroska
Format version : Version 2
File size : 3.06 GiB
Duration : 1h 56mn
Overall bit rate : 3 766 Kbps
Encoded date : UTC 2015-01-10 05:20:53
Writing application : mkvmerge v5.8.0 ('No Sleep / Pillow') built on Sep 2 2012 15:37:04
Writing library : libebml v1.2.3 + libmatroska v1.3.0
Video
ID : 1
Format : AVC
Format/Info : Advanced Video Codec
Format profile : Main@L4.1
Format settings, CABAC : Yes
Format settings, ReFrames : 8 frames
Muxing mode : Header stripping
Codec ID : V_MPEG4/ISO/AVC
Duration : 1h 56mn
Bit rate : 3 435 Kbps
Width : 1 280 pixels
Height : 720 pixels
Display aspect ratio : 16:9
Frame rate mode : Constant
Frame rate : 29.970 fps
Color space : YUV
Chroma subsampling : 4:2:0
Bit depth : 8 bits
Scan type : Progressive
Bits/(Pixel*Frame) : 0.124
Stream size : 2.79 GiB (91%)
Language : English
Default : Yes
Forced : No
Audio
ID : 2
Format : AC-3
Format/Info : Audio Coding 3
Mode extension : CM (complete main)
Format settings, Endianness : Big
Muxing mode : Header stripping
Codec ID : A_AC3
Duration : 1h 56mn
Bit rate mode : Constant
Bit rate : 256 Kbps
Channel(s) : 2 channels
Channel positions : Front: L R
Sampling rate : 48.0 KHz
Bit depth : 16 bits
Compression mode : Lossy
Stream size : 213 MiB (7%)
Language : Russian
Default : Yes
Forced : No

Релиз от:



   Похожие торренты   Торрент   Размер 
В этой теме нет новых непрочитанных сообщений. Смертельная Битва: Наследие / Mortal Kombat: Legacy [S01] (2011) WEBRip

5 | 2

1.46 ГБ

В этой теме нет новых непрочитанных сообщений. Смертельная Битва: Наследие / Mortal Kombat: Legacy [S01] (2011) WEB-DL 720p

10 | 4

1.5 ГБ

В этой теме нет новых непрочитанных сообщений. Смертельная Битва: Наследие / Mortal Kombat: Legacy [S01, 02х01-09] (2011-2013) WEB-DLRip 720p | LostFilm

103 | 12

6 ГБ

В этой теме нет новых непрочитанных сообщений. Смертельная битва: Наследие / Mortal Kombat: Legacy [01-09 из 09] (2011) BDRip от HQ-ViDEO

19 | 2

1.77 ГБ

В этой теме нет новых непрочитанных сообщений. Смертельная битва: Наследие / Mortal Kombat: Legacy [S01] (2011) BDRip от HQRips

1 | 3

1.83 ГБ

В этой теме нет новых непрочитанных сообщений. Смертельная Битва: Наследие / Mortal Kombat: Legacy [S01] (2011) HDRip от F-Torrent

14 | 8

2.04 ГБ

В этой теме нет новых непрочитанных сообщений. Смертельная битва / Mortal Kombat (1995) 720p BDRip от HQCLUB

6 | 5

7.16 ГБ




Вы не можете начинать темы
Вы не можете отвечать на сообщения
Вы не можете редактировать свои сообщения
Вы не можете удалять свои сообщения
Вы не можете добавлять вложения

Перейти:  
Для Мосгорсуда, Роскомнадзора и рекламодателей: mosgorsud-torrent[собачка]yandex.ru
 Вход
ppkBB3cker v.2 © 2008-2014 @ PPK
[ Time : 32.544s | 15 Queries | GZIP : Off ]
CGP output time : 0.035s | 5 Queries | GZIP : Off

Торрент трекер RUTOR.IN, Не можете зайти на rutor.org? Какой новый адрес рутор? Какое зеркало рутор? Не работает rutor.org и зеркала? Тогда наш торрент специально для вас. Rutor.in неофициальное зеркало rutor. В случае если у Вас заблокирован rutor или вдруг Вы не можете на него зайти, то Вы без труда сможете скачать бесплатно и без рекламы последние новинки кино, игр, сериалов и прочего у нас, на Rutor.in. Не нужно использовать прокси, чтобы зайти на рутор, достаточно воспользоваться нашим ресурсом. Все новые фильмы, игры, сериалы, книги и музыка за 2013 и 2014 годы через торрент бесплатно. Скачивайте фильмы в хорошем качестве, игры для пк, xbox, playstation без регистрации. У нас вы найдете новые Зарубежные сериалы и Русские сериалы 2013, 2014, 2015 годов. Оставайтесь с нами, качайте любимые фильмы, игры, сериалы, книги и музыку.