img image001 image001 image001 image001 image001 image001 image001 image001 image001 image001 image001 image001 image001 image001 image001

Planets Sun Sun Sun
Статистика раздачи
Автор: Nickolas3434 | Размер: 143.99 МБ | Добавлен: 16 янв 2015
Раздают: 26    Качают: 4
Скачать торрент
Скачать торрент
Описание торрента

СообщениеДобавлено: 16 янв 2015 

Страна: СССР
Производство: Союзмультфильм
Жанр: мультфильм, короткометражка
Год выпуска: 1976
Продолжительность: 00:09:40
Перевод: не требуется
Оригинальная аудиодорожка: русский
Cубтитры: нет
Режиссер: Валерий Угаров
Описание:
Музыкальная фантазия по мотивам сказки В.Ф.Одоевского "Городок в табакерке".
Действие перенесено в наше время, а от сказки осталась только одна гигантская шкатулка. В нее и залез мальчик, решив узнать, что внутри, и попытаться завести ее ключиком.
Музыка записана в экспериментальной студии электронной музыки ансамблем "Орегон"...





Исходник: DVD5 R5
Качество: DVDRip
Формат: AVI
Видео: 704x528 (4:3), 25 fps, XviD ~ 1625 kbps avg, 0.175 bit/pixel
Аудио: 48 kHz, Dolby Digital AC3 5.1, 448 kbps
Общее
Полное имя : Shkatulka.s.sekretom.1976.DVDRip_[New-team]_by_AVP_Studio.avi
Формат : AVI
Формат/Информация : Audio Video Interleave
Размер файла : 144 Мбайт
Продолжительность : 9 м. 40 с.
Общий поток : 2082 Кбит/сек
Программа кодирования : VirtualDubModRus 1.5.10.2 (build 2542/release)
Библиотека кодирования : VirtualDubMod build 2542/release
Видео
Идентификатор : 0
Формат : MPEG-4 Visual
Профиль формата : Advanced Simple@L5
Параметр BVOP формата : 1
Параметр QPel формата : Нет
Параметр GMC формата : Без точки перехода
Параметр матрицы формата : Выборочная
Идентификатор кодека : XVID
Идентификатор кодека/Подсказка : XviD
Продолжительность : 9 м. 40 с.
Битрейт : 1625 Кбит/сек
Ширина : 704 пикселя
Высота : 528 пикселей
Соотношение сторон : 4:3
Частота кадров : 25,000 кадров/сек
Цветовое пространство : YUV
Субдискретизация насыщенности : 4:2:0
Битовая глубина : 8 бит
Тип развёртки : Прогрессивная
Метод сжатия : С потерями
Бит/(Пиксели*Кадры) : 0.175
Размер потока : 112 Мбайт (78%)
Библиотека кодирования : XviD 73
Аудио
Идентификатор : 1
Формат : AC-3
Формат/Информация : Audio Coding 3
Расширение режима : CM (complete main)
Параметр Endianness формата : Big
Идентификатор кодека : 2000
Продолжительность : 9 м. 39 с.
Вид битрейта : Постоянный
Битрейт : 448 Кбит/сек
Каналы : 6 каналов
Расположение каналов : Front: L C R, Side: L R, LFE
Частота : 48,0 КГц
Битовая глубина : 16 бит
Метод сжатия : С потерями
Размер потока : 31,0 Мбайт (22%)
Выравнивание : Разделение по промежуткам
Продолжительность промежутка : 40 мс. (1,00 видеокадр)
Время предзагрузки промежутка : 500 мс





   Похожие торренты   Торрент   Размер 
В этой теме нет новых непрочитанных сообщений. Шкатулка с секретом (1976) DVDRip-AVC от New-Team

93 | 11

145.73 МБ

В этой теме нет новых непрочитанных сообщений. Шкатулка с секретом (1976) DVDRip

26 | 4

129.49 МБ

В этой теме нет новых непрочитанных сообщений. Замочек с секретом (1985) DVDRip

5 | 2

272.3 МБ

В этой теме нет новых непрочитанных сообщений. Брелок с секретом (1981) DVDRip от Odyzic и MyWorldFilm

6 | 3

1.17 ГБ

В этой теме нет новых непрочитанных сообщений. Дни Турбиных [01-03 из 03] (1976) DVDRip от New-Team

42 | 16

2.19 ГБ

В этой теме нет новых непрочитанных сообщений. Дни Турбиных [01-03 из 03] (1976) DVDRip от New-Team

38 | 17

2.91 ГБ

В этой теме нет новых непрочитанных сообщений. Дни Турбиных [01-03 из 03] (1976) DVDRip-AVC от New-Team

94 | 9

2.91 ГБ




Вы не можете начинать темы
Вы не можете отвечать на сообщения
Вы не можете редактировать свои сообщения
Вы не можете удалять свои сообщения
Вы не можете добавлять вложения

Перейти:  
Для Мосгорсуда, Роскомнадзора и рекламодателей: mosgorsud-torrent[собачка]yandex.ru
 Вход
ppkBB3cker v.2 © 2008-2014 @ PPK
[ Time : 2.202s | 15 Queries | GZIP : Off ]

Торрент трекер RUTOR.IN, Не можете зайти на rutor.org? Какой новый адрес рутор? Какое зеркало рутор? Не работает rutor.org и зеркала? Тогда наш торрент специально для вас. Rutor.in неофициальное зеркало rutor. В случае если у Вас заблокирован rutor или вдруг Вы не можете на него зайти, то Вы без труда сможете скачать бесплатно и без рекламы последние новинки кино, игр, сериалов и прочего у нас, на Rutor.in. Не нужно использовать прокси, чтобы зайти на рутор, достаточно воспользоваться нашим ресурсом. Все новые фильмы, игры, сериалы, книги и музыка за 2013 и 2014 годы через торрент бесплатно. Скачивайте фильмы в хорошем качестве, игры для пк, xbox, playstation без регистрации. У нас вы найдете новые Зарубежные сериалы и Русские сериалы 2013, 2014, 2015 годов. Оставайтесь с нами, качайте любимые фильмы, игры, сериалы, книги и музыку.