img image001 image001 image001 image001 image001 image001 image001 image001 image001 image001 image001 image001 image001 image001 image001

Planets Sun Sun Sun
Статистика раздачи
Автор: Nickolas3434 | Размер: 743.56 МБ | Добавлен: 16 янв 2015
Раздают: 77    Качают: 15
Скачать торрент
Скачать торрент
Описание торрента

СообщениеДобавлено: 16 янв 2015 

Страна: СССР
Производство: Союзмультфильм
Жанр: мультфильм, фэнтези, семейный
Год выпуска: 1984
Продолжительность: 00:53:08
Перевод: не требуется
Оригинальная аудиодорожка: русский
Cубтитры: нет
Режиссер: Иван Иванов-Вано, Лев Мильчин
Озвучивает:
Анастасия Зуева, Михаил Зимин, Алексей Золотницкий, Наталья Боронина, Роман Филиппов, Алла Покровская, Николай Граббе, Мария Виноградова, Борис Новиков, Людмила Иванова...
Текст читает:
Авангард Леонтьев
Описание:
Три девицы под окном пряли поздно вечерком. «Кабы я была царица»,— говорит одна девица… Дальше можно не продолжать. Благодаря урокам литературы сюжет классической «Сказки о царе Салтане, о сыне его славном и могучем богатыре князе Гвидоне Салтановиче и о прекрасной царевне Лебеди» знают все. Подарите себе шанс вновь и вновь возвращаться в волшебный мир, созданный гением Александра Сергеевича Пушкина.





Исходник: DVD5 R5
Качество: DVDRip
Формат: AVI
Видео: 704x528 (4:3), 25 fps, XviD ~ 1499 kbps avg, 0.161 bit/pixel
Аудио: 48 kHz, Dolby Digital AC3 5.1, 448 kbps
Раздача от:
Общее
Полное имя : Skazka.o.care.Saltane.1984.DVDRip_[New-team]_by_AVP_Studio.avi
Формат : AVI
Формат/Информация : Audio Video Interleave
Размер файла : 744 Мбайт
Продолжительность : 53 м.
Общий поток : 1957 Кбит/сек
Программа кодирования : VirtualDubModRus 1.5.10.2 (build 2542/release)
Библиотека кодирования : VirtualDubMod build 2542/release
Видео
Идентификатор : 0
Формат : MPEG-4 Visual
Профиль формата : Advanced Simple@L5
Параметр BVOP формата : 1
Параметр QPel формата : Нет
Параметр GMC формата : Без точки перехода
Параметр матрицы формата : Выборочная
Идентификатор кодека : XVID
Идентификатор кодека/Подсказка : XviD
Продолжительность : 53 м.
Битрейт : 1499 Кбит/сек
Ширина : 704 пикселя
Высота : 528 пикселей
Соотношение сторон : 4:3
Частота кадров : 25,000 кадров/сек
Цветовое пространство : YUV
Субдискретизация насыщенности : 4:2:0
Битовая глубина : 8 бит
Тип развёртки : Прогрессивная
Метод сжатия : С потерями
Бит/(Пиксели*Кадры) : 0.161
Размер потока : 570 Мбайт (77%)
Библиотека кодирования : XviD 73
Аудио
Идентификатор : 1
Формат : AC-3
Формат/Информация : Audio Coding 3
Расширение режима : CM (complete main)
Параметр Endianness формата : Big
Идентификатор кодека : 2000
Продолжительность : 53 м.
Вид битрейта : Постоянный
Битрейт : 448 Кбит/сек
Каналы : 6 каналов
Расположение каналов : Front: L C R, Side: L R, LFE
Частота : 48,0 КГц
Битовая глубина : 16 бит
Метод сжатия : С потерями
Размер потока : 170 Мбайт (23%)
Выравнивание : Разделение по промежуткам
Продолжительность промежутка : 40 мс. (1,00 видеокадр)
Время предзагрузки промежутка : 500 мс





   Похожие торренты   Торрент   Размер 
В этой теме нет новых непрочитанных сообщений. Сказка о царе Салтане (1984) DVDRip-AVC от New-Team

535 | 27

743.97 МБ

В этой теме нет новых непрочитанных сообщений. Сказка о царе Салтане (1984) DVDRip | Реставрация

63 | 10

700.26 МБ

В этой теме нет новых непрочитанных сообщений. Сказка о царе Салтане (1984) DVDRip от MediaClub | КПК

597 | 24

240.33 МБ

В этой теме нет новых непрочитанных сообщений. Сказка о царе Салтане / (1984) DVDRip-AVC от SDIncorporation

50 | 4

855.46 МБ

В этой теме нет новых непрочитанных сообщений. Сказка о царе Салтане. Сборник мультфильмов (1984) DVDRip от Киномагия

111 | 12

1.49 ГБ

В этой теме нет новых непрочитанных сообщений. Сказка о царе Салтане (1984) HDTVRip 720p от SDIncorporation

225 | 5

1.78 ГБ

В этой теме нет новых непрочитанных сообщений. Сказка о царе Салтане (1966) DVDRip-AVC

45 | 3

698.29 МБ




Вы не можете начинать темы
Вы не можете отвечать на сообщения
Вы не можете редактировать свои сообщения
Вы не можете удалять свои сообщения
Вы не можете добавлять вложения

Перейти:  
Для Мосгорсуда, Роскомнадзора и рекламодателей: mosgorsud-torrent[собачка]yandex.ru
 Вход
ppkBB3cker v.2 © 2008-2014 @ PPK
[ Time : 0.131s | 15 Queries | GZIP : Off ]

Торрент трекер RUTOR.IN, Не можете зайти на rutor.org? Какой новый адрес рутор? Какое зеркало рутор? Не работает rutor.org и зеркала? Тогда наш торрент специально для вас. Rutor.in неофициальное зеркало rutor. В случае если у Вас заблокирован rutor или вдруг Вы не можете на него зайти, то Вы без труда сможете скачать бесплатно и без рекламы последние новинки кино, игр, сериалов и прочего у нас, на Rutor.in. Не нужно использовать прокси, чтобы зайти на рутор, достаточно воспользоваться нашим ресурсом. Все новые фильмы, игры, сериалы, книги и музыка за 2013 и 2014 годы через торрент бесплатно. Скачивайте фильмы в хорошем качестве, игры для пк, xbox, playstation без регистрации. У нас вы найдете новые Зарубежные сериалы и Русские сериалы 2013, 2014, 2015 годов. Оставайтесь с нами, качайте любимые фильмы, игры, сериалы, книги и музыку.