img image001 image001 image001 image001 image001 image001 image001 image001 image001 image001 image001 image001 image001 image001 image001

Planets Sun Sun Sun
Статистика раздачи
Автор: Nickolas3434 | Размер: 421.11 МБ | Добавлен: 17 янв 2015
Раздают: 78    Качают: 4
Скачать торрент
Скачать торрент
Описание торрента

СообщениеДобавлено: 17 янв 2015 

Информация о фильме
Название: Бумажный роман
Оригинальное название: Paperman
Год выхода: 2012
Жанр: Анимация, Короткометражка, Мелодрама
Режиссер: Джон Карс
В ролях: Джон Карс, Кэри Уолгрен, Джефф Терли
Страна: США
Студия: Walt Disney Animation Studios
Продолжительность: 00:06:29
Перевод: Не требуется
О фильме:
В своей дебютной режиссерской работе «Paperman» Джон Карс представит зрителям уникальную новую технологию, сочетающую компьютерную и рисованную анимацию.
Середина двадцатого столетия. Нью-Йорк. Одинокий молодой человек на платформе вокзала. Еще мгновение — и судьба подарит ему удивительный шанс, который, возможно, бывает раз в жизни. Он встретит красавицу, чей взгляд мгновенно покорит его сердце. Но девушка его мечты так же быстро исчезает, как и появляется. Будет ли у героя мультфильма вторая попытка?


Качество: BDrip
Контейнер: MKV
Формат 3D: Half OverUnder / Вертикальная анаморфная стереопара
Порядок ракурсов: левый ракурс первый
Видео кодек: x264
Видео: AVC, 1920x1080, 8250 Кбит/сек, 23.976 fps
Аудио кодек: AC3
Аудио: English, AC-3, 6 каналов, 640 Кбит/сек, 48,0 КГц
Общее
Уникальный идентификатор : 210590697083654610733692723574780572745 (0x9E6E4AFEEBAA85088185681352E9B449)
Полное имя : Paperman3D_2012BDRip_halfOU1080p.mkv
Формат : Matroska
Версия формата : Version 4 / Version 2
Размер файла : 421 Мбайт
Продолжительность : 6 м. 29 с.
Общий поток : 9070 Кбит/сек
Дата кодирования : UTC 2015-01-16 16:15:58
Программа кодирования : mkvmerge v7.5.0 ('Glass Culture') 64bit built on Jan 4 2015 16:48:44
Библиотека кодирования : libebml v1.3.1 + libmatroska v1.4.2
DURATION : 00:06:29.472000000
NUMBER_OF_FRAMES : 12171
NUMBER_OF_BYTES : 31157760
_STATISTICS_WRITING_APP : mkvmerge v7.5.0 ('Glass Culture') 64bit built on Jan 4 2015 16:48:44
_STATISTICS_WRITING_DATE_UTC : 2015-01-16 16:15:58
_STATISTICS_TAGS : BPS DURATION NUMBER_OF_FRAMES NUMBER_OF_BYTES
Видео
Идентификатор : 1
Формат : AVC
Формат/Информация : Advanced Video Codec
Профиль формата : High@L4.0
Параметр CABAC формата : Да
Параметр ReFrames формата : 4 кадра
Идентификатор кодека : V_MPEG4/ISO/AVC
Продолжительность : 6 м. 29 с.
Битрейт : 8250 Кбит/сек
Ширина : 1920 пикселей
Высота : 1080 пикселей
Соотношение сторон : 16:9
Режим частоты кадров : Постоянный
Частота кадров : 23,976 кадра/сек
Цветовое пространство : YUV
Субдискретизация насыщенности : 4:2:0
Битовая глубина : 8 бит
Тип развёртки : Прогрессивная
Бит/(Пиксели*Кадры) : 0.166
Размер потока : 383 Мбайт (91%)
Библиотека кодирования : x264 core 120 r2145 748fe16
Настройки программы : cabac=1 / ref=4 / deblock=1:-3:-3 / analyse=0x3:0x113 / me=umh / subme=9 / psy=1 / psy_rd=1.00:0.00 / mixed_ref=1 / me_range=16 / chroma_me=1 / trellis=2 / 8x8dct=1 / cqm=0 / deadzone=21,11 / fast_pskip=1 / chroma_qp_offset=-2 / threads=9 / sliced_threads=0 / nr=0 / decimate=1 / interlaced=0 / bluray_compat=0 / constrained_intra=0 / bframes=6 / b_pyramid=2 / b_adapt=2 / b_bias=0 / direct=3 / weightb=1 / open_gop=0 / weightp=2 / keyint=250 / keyint_min=23 / scenecut=40 / intra_refresh=0 / rc_lookahead=60 / rc=crf / mbtree=1 / crf=18.0 / qcomp=0.60 / qpmin=1 / qpmax=69 / qpstep=4 / ip_ratio=1.40 / aq=1:1.00
Язык : English
Default : Нет
Forced : Нет
DURATION : 00:06:29.306000000
NUMBER_OF_FRAMES : 9334
NUMBER_OF_BYTES : 410311618
_STATISTICS_WRITING_APP : mkvmerge v7.5.0 ('Glass Culture') 64bit built on Jan 4 2015 16:48:44
_STATISTICS_WRITING_DATE_UTC : 2015-01-16 16:15:58
_STATISTICS_TAGS : BPS DURATION NUMBER_OF_FRAMES NUMBER_OF_BYTES
Аудио
Идентификатор : 2
Формат : AC-3
Формат/Информация : Audio Coding 3
Расширение режима : CM (complete main)
Параметр Endianness формата : Big
Идентификатор кодека : A_AC3
Продолжительность : 6 м. 29 с.
Вид битрейта : Постоянный
Битрейт : 640 Кбит/сек
Каналы : 6 каналов
Расположение каналов : Front: L C R, Side: L R, LFE
Частота : 48,0 КГц
Битовая глубина : 16 бит
Метод сжатия : С потерями
Размер потока : 29,7 Мбайт (7%)
Язык : English
Default : Да
Forced : Нет

О форматах и методах просмотра 3D-Video



   Похожие торренты   Торрент   Размер 
В этой теме нет новых непрочитанных сообщений. Бумажный роман / Paperman (2012) BDRip 720p

40 | 2

704.95 МБ

В этой теме нет новых непрочитанных сообщений. Камасутра 3D / Kamasutra 3D (2012) BDRip 1080p от Ash61 | 3D-Video | halfOU

600 | 49

3.58 ГБ

В этой теме нет новых непрочитанных сообщений. Пир драконов / Dragons Feast (2012) BDRip 1080p от Ash61 | 3D-Video | halfOU | P1

59 | 62

6.42 ГБ

В этой теме нет новых непрочитанных сообщений. Охотники на демонов / Hellbenders (2012) BDRip 1080p от Ash61 | 3D-Video | halfOU

349 | 70

5.24 ГБ

В этой теме нет новых непрочитанных сообщений. Гильотина / Гильотины / Xue di zi / The Guillotines (2012) BDRip 1080p от Ash61 | 3D-Video | halfOU | L2

32 | 73

15.5 ГБ

В этой теме нет новых непрочитанных сообщений. 009 король: Киборг / 009 Re: Cyborg (2012) BDRip 1080p от Ash61 | 3D-Video | halfOU | L

66 | 25

4.15 ГБ

В этой теме нет новых непрочитанных сообщений. Галапагосские острова / Südamerika: Faszination Galapagos (2012) BDRip 1080p | 3D-Video | halfOU

64 | 14

7.99 ГБ




Вы не можете начинать темы
Вы не можете отвечать на сообщения
Вы не можете редактировать свои сообщения
Вы не можете удалять свои сообщения
Вы не можете добавлять вложения

Перейти:  
Для Мосгорсуда, Роскомнадзора и рекламодателей: mosgorsud-torrent[собачка]yandex.ru
 Вход
ppkBB3cker v.2 © 2008-2014 @ PPK
[ Time : 0.307s | 16 Queries | GZIP : Off ]

Торрент трекер RUTOR.IN, Не можете зайти на rutor.org? Какой новый адрес рутор? Какое зеркало рутор? Не работает rutor.org и зеркала? Тогда наш торрент специально для вас. Rutor.in неофициальное зеркало rutor. В случае если у Вас заблокирован rutor или вдруг Вы не можете на него зайти, то Вы без труда сможете скачать бесплатно и без рекламы последние новинки кино, игр, сериалов и прочего у нас, на Rutor.in. Не нужно использовать прокси, чтобы зайти на рутор, достаточно воспользоваться нашим ресурсом. Все новые фильмы, игры, сериалы, книги и музыка за 2013 и 2014 годы через торрент бесплатно. Скачивайте фильмы в хорошем качестве, игры для пк, xbox, playstation без регистрации. У нас вы найдете новые Зарубежные сериалы и Русские сериалы 2013, 2014, 2015 годов. Оставайтесь с нами, качайте любимые фильмы, игры, сериалы, книги и музыку.