img image001 image001 image001 image001 image001 image001 image001 image001 image001 image001 image001 image001 image001 image001 image001

Planets Sun Sun Sun
Статистика раздачи
Автор: Nickolas3434 | Размер: 2.99 ГБ | Добавлен: 19 янв 2015
Раздают: 92    Качают: 13
Скачать торрент
Скачать торрент
Описание торрента

СообщениеДобавлено: 19 янв 2015 

Паранорман, или Как приручить зомби / ParaNorman (2012) BDRip 720p
от HELLYWOOD

Информация о фильме:
Год выпуска: 2012
Страна: США
Жанр: мультфильм, ужасы, фэнтези, комедия, приключения, семейный
Продолжительность: 01:32:15
Перевод: Профессиональный (полное дублирование) CEE
Оригинальная звуковая дорожка
Субтитры: Русские (форсированные, полные), Английские (SDH)
Режиссер: Крис Батлер, Сэм Фелл
В главных ролях: Коди Смит-МакФи, Такер Албрицци, Анна Кендрик, Кейси Аффлек, Кристофер Минц-Плассе, Лесли Манн, Джефф Гарлин, Элейн Стритч, Бернард Хилл, Джоделль Ферланд...
Роли дублировали: Даниил Трещов, Лев Аксельрод, Лина Иванова, Данил Щебланов, Александр Комлев...
Описание: Норман, Паранорман. Единственная надежда полусонного городка в борьбе с полчищами нечисти. Его оружие — супер-мега-дар: умение общаться с призраками. Впрочем, мертвецы — не главная опасность, куда хуже — глупые взрослые с дробовиками наперевес.

Релиз от -
Автор рипа: serokuz74
Файл:
Формат: MKV
Качество: BDRip 720p (источник: Doktor S. /Blu-ray Remux /1080p)
Видео: 1280x534 at 23.976 fps, x264@L4.1, crf, ~3272 kbps avg
Аудио #1: 48 kHz, AC3 Dolby Digital, 3/2 (L,C,R,l,r) + LFE ch, ~640 kbps |DUB|
Аудио #2: 48 kHz, AC3 Dolby Digital, 3/2 (L,C,R,l,r) + LFE ch, ~640 kbps |ENG|
Скачать: Семпл
General
Unique ID : 252303427758110587846852772062628258391 (0xBDCFDF6696067B66946ECED5BEADA257)
Complete name : D:Paranorman.Ili.Kak.Priruchit.Zombi.2012.BDRip.720p.DUAL.-HELLYWOOD.mkv
Format : Matroska
Format version : Version 4 / Version 2
File size : 2.99 GiB
Duration : 1h 32mn
Overall bit rate : 4 644 Kbps
Movie name : ParaNorman (2012) - http://hellywood.ru/
Encoded date : UTC 2015-01-15 09:11:22
Writing application : mkvmerge v6.9.1 ('Blue Panther') 32bit built on Apr 18 2014 18:15:44
Writing library : libebml v1.3.0 + libmatroska v1.4.1
Video
ID : 1
Format : AVC
Format/Info : Advanced Video Codec
Format profile : High@L4.1
Format settings, CABAC : Yes
Format settings, ReFrames : 12 frames
Codec ID : V_MPEG4/ISO/AVC
Duration : 1h 32mn
Bit rate : 3 272 Kbps
Width : 1 280 pixels
Height : 534 pixels
Display aspect ratio : 2.40:1
Frame rate : 23.976 fps
Color space : YUV
Chroma subsampling : 4:2:0
Bit depth : 8 bits
Scan type : Progressive
Bits/(Pixel*Frame) : 0.200
Stream size : 2.11 GiB (70%)
Title : serokuz74
Writing library : x264 core 144 r2525kMod 40bb568
Encoding settings : cabac=1 / ref=12 / deblock=1:-2:-2 / analyse=0x3:0x133 / me=tesa / subme=11 / psy=1 / fade_compensate=0.00 / psy_rd=0.90:0.00 / mixed_ref=1 / me_range=32 / chroma_me=1 / trellis=2 / 8x8dct=1 / cqm=0 / deadzone=21,11 / fast_pskip=0 / chroma_qp_offset=-2 / threads=12 / lookahead_threads=2 / sliced_threads=0 / nr=0 / decimate=0 / interlaced=0 / bluray_compat=0 / constrained_intra=0 / fgo=0 / bframes=10 / b_pyramid=2 / b_adapt=2 / b_bias=0 / direct=3 / weightb=1 / open_gop=0 / weightp=2 / keyint=250 / keyint_min=23 / scenecut=40 / intra_refresh=0 / rc_lookahead=60 / rc=crf / mbtree=0 / crf=15.8000 / qcomp=0.60 / qpmin=0 / qpmax=69 / qpstep=4 / vbv_maxrate=50000 / vbv_bufsize=62500 / crf_max=0.0 / nal_hrd=none / filler=0 / ip_ratio=1.30 / pb_ratio=1.20 / aq=2:0.80
Language : English
Default : Yes
Forced : No
Matrix coefficients : BT.709-5, BT.1361, IEC 61966-2-4 709, SMPTE RP177
Audio #1
ID : 2
Format : AC-3
Format/Info : Audio Coding 3
Mode extension : CM (complete main)
Format settings, Endianness : Big
Codec ID : A_AC3
Duration : 1h 32mn
Bit rate mode : Constant
Bit rate : 640 Kbps
Channel(s) : 6 channels
Channel positions : Front: L C R, Side: L R, LFE
Sampling rate : 48.0 KHz
Bit depth : 16 bits
Compression mode : Lossy
Stream size : 422 MiB (14%)
Title : AC3 5.1 @ 640 kbps - DUB
Language : Russian
Default : Yes
Forced : Yes
Audio #2
ID : 3
Format : AC-3
Format/Info : Audio Coding 3
Mode extension : CM (complete main)
Format settings, Endianness : Big
Codec ID : A_AC3
Duration : 1h 32mn
Bit rate mode : Constant
Bit rate : 640 Kbps
Channel(s) : 6 channels
Channel positions : Front: L C R, Side: L R, LFE
Sampling rate : 48.0 KHz
Bit depth : 16 bits
Compression mode : Lossy
Stream size : 422 MiB (14%)
Title : AC3 5.1 @ 640 kbps - Original
Language : English
Default : No
Forced : No
Text #1
ID : 4
Format : UTF-8
Codec ID : S_TEXT/UTF8
Codec ID/Info : UTF-8 Plain Text
Title : Forced
Language : Russian
Default : Yes
Forced : Yes
Text #2
ID : 5
Format : UTF-8
Codec ID : S_TEXT/UTF8
Codec ID/Info : UTF-8 Plain Text
Title : Full
Language : Russian
Default : No
Forced : No
Text #3
ID : 6
Format : UTF-8
Codec ID : S_TEXT/UTF8
Codec ID/Info : UTF-8 Plain Text
Title : Full - SDH
Language : English
Default : No
Forced : No
Menu
00:00:00.000 : en:Chapter 01
00:04:55.420 : en:Chapter 02
00:08:29.426 : en:Chapter 03
00:11:38.865 : en:Chapter 04
00:15:10.576 : en:Chapter 05
00:18:10.673 : en:Chapter 06
00:21:54.146 : en:Chapter 07
00:26:25.501 : en:Chapter 08
00:30:04.970 : en:Chapter 09
00:33:56.117 : en:Chapter 10
00:38:16.920 : en:Chapter 11
00:43:06.542 : en:Chapter 12
00:49:36.849 : en:Chapter 13
00:52:46.789 : en:Chapter 14
00:56:46.194 : en:Chapter 15
01:01:15.964 : en:Chapter 16
01:05:53.575 : en:Chapter 17
01:11:51.057 : en:Chapter 18
01:18:19.486 : en:Chapter 19
01:25:07.394 : en:Chapter 20

x264 [info]: frame I:1029 Avg QP:13.14 size:103374
x264 [info]: frame P:29193 Avg QP:15.42 size: 35685
x264 [info]: frame B:102490 Avg QP:16.66 size: 11500
x264 [info]: consecutive B-frames: 2.5% 2.3% 10.8% 20.2% 16.5% 29.1% 6.9% 5.2% 3.4% 1.4% 1.7%
x264 [info]: mb I I16..4: 4.0% 76.5% 19.5%
x264 [info]: mb P I16..4: 0.6% 11.0% 1.8% P16..4: 30.9% 33.2% 14.7% 2.9% 0.3% skip: 4.5%
x264 [info]: mb B I16..4: 0.1% 1.4% 0.2% B16..8: 28.9% 21.0% 4.9% direct: 4.7% skip:38.8% L0:46.1% L1:43.5% BI:10.4%
x264 [info]: 8x8 transform intra:81.6% inter:52.3%
x264 [info]: direct mvs spatial:100.0% temporal:0.0%
x264 [info]: coded y,uvDC,uvAC intra: 92.5% 94.6% 84.8% inter: 20.4% 25.5% 13.8%
x264 [info]: i16 v,h,dc,p: 10% 7% 4% 79%
x264 [info]: i8 v,h,dc,ddl,ddr,vr,hd,vl,hu: 12% 8% 6% 9% 13% 13% 13% 12% 14%
x264 [info]: i4 v,h,dc,ddl,ddr,vr,hd,vl,hu: 14% 6% 4% 10% 16% 15% 13% 11% 12%
x264 [info]: i8c dc,h,v,p: 47% 19% 17% 17%
x264 [info]: Weighted P-Frames: Y:7.3% UV:5.7%
x264 [info]: ref P L0: 46.7% 6.1% 18.7% 6.5% 5.7% 3.9% 3.8% 1.9% 1.9% 1.5% 1.5% 1.4% 0.3% 0.0%
x264 [info]: ref B L0: 66.0% 14.4% 6.7% 3.7% 2.5% 2.2% 1.7% 1.1% 0.9% 0.6% 0.3%
x264 [info]: ref B L1: 91.5% 8.5%

Скриншоты:




   Похожие торренты   Торрент   Размер 
В этой теме нет новых непрочитанных сообщений. Паранорман, или Как приручить зомби / ParaNorman (2012) BDRip от HELLYWOOD

51 | 6

1.45 ГБ

В этой теме нет новых непрочитанных сообщений. Паранорман, или Как приручить зомби / ParaNorman (2012) BDRip 720p | Лицензия

9 | 4

4.25 ГБ

В этой теме нет новых непрочитанных сообщений. Паранорман, или Как приручить зомби / ParaNorman (2012) BDRip 720p от New-Team | Лицензия

81 | 1

2.18 ГБ

В этой теме нет новых непрочитанных сообщений. Паранорман, или Как приручить зомби / ParaNorman (2012) BDRip 720p от HQ-ViDEO | Лицензия

99 | 3

2.49 ГБ

В этой теме нет новых непрочитанных сообщений. Паранорман, или Как приручить зомби / ParaNorman (2012) BDRip 1080p

40 | 4

4.37 ГБ

В этой теме нет новых непрочитанных сообщений. Паранорман, или Как приручить зомби / ParaNorman (2012) BDRip-AVC | iPad

5 | 3

1.06 ГБ

В этой теме нет новых непрочитанных сообщений. Паранорман, или Как приручить зомби / ParaNorman (2012) BDRip 1080p | Лицензия

3 | 2

6.9 ГБ




Вы не можете начинать темы
Вы не можете отвечать на сообщения
Вы не можете редактировать свои сообщения
Вы не можете удалять свои сообщения
Вы не можете добавлять вложения

Перейти:  
Для Мосгорсуда, Роскомнадзора и рекламодателей: mosgorsud-torrent[собачка]yandex.ru
 Вход
ppkBB3cker v.2 © 2008-2014 @ PPK
[ Time : 0.042s | 16 Queries | GZIP : Off ]

Торрент трекер RUTOR.IN, Не можете зайти на rutor.org? Какой новый адрес рутор? Какое зеркало рутор? Не работает rutor.org и зеркала? Тогда наш торрент специально для вас. Rutor.in неофициальное зеркало rutor. В случае если у Вас заблокирован rutor или вдруг Вы не можете на него зайти, то Вы без труда сможете скачать бесплатно и без рекламы последние новинки кино, игр, сериалов и прочего у нас, на Rutor.in. Не нужно использовать прокси, чтобы зайти на рутор, достаточно воспользоваться нашим ресурсом. Все новые фильмы, игры, сериалы, книги и музыка за 2013 и 2014 годы через торрент бесплатно. Скачивайте фильмы в хорошем качестве, игры для пк, xbox, playstation без регистрации. У нас вы найдете новые Зарубежные сериалы и Русские сериалы 2013, 2014, 2015 годов. Оставайтесь с нами, качайте любимые фильмы, игры, сериалы, книги и музыку.
cron