img image001 image001 image001 image001 image001 image001 image001 image001 image001 image001 image001 image001 image001 image001 image001

Planets Sun Sun Sun
Статистика раздачи
Автор: Nickolas3434 | Размер: 2.18 ГБ | Добавлен: 19 янв 2015
Раздают: 612    Качают: 92
Скачать торрент
Скачать торрент
Описание торрента

СообщениеДобавлено: 19 янв 2015 

Информация о фильме
Название: Книга жизни
Оригинальное название: The Book of Life
Год выхода: 2014
Жанр: Мультфильм, фэнтези, мелодрама, комедия, приключения, семейный
Режиссер: Хорхе Р. Гутьеррес
В ролях: Диего Луна, Зои Салдана, Ченнинг Татум, Рон Перлман, Кристина Эпплгейт, Айс Кьюб, Кейт дель Кастильо, Гектор Элизондо, Дэнни Трехо, Карлос Аласраки, Ана де ла Регера, Эмиль-Бастьен Боффар, Элиас Гарза, Дженесис Очоа, Пласидо Доминго, Хорхе Р. Гутьеррес, Эухенио Дербес, Гэбриел Иглесиас, Трей Бампасс, Дэн Наварро, Кеннеди Пейл, Мигель Сандовал, Грэй ДеЛисл, Бен Глейб
О фильме:
В мультфильме описывается романтическая история любви на фоне празднования Дня мертвых в Мексике.
Золотой глобус, 2015 год
Номинации (1):
Лучший анимационный фильм
Рейтинг PG - Рекомендуется присутствие родителей
Исходник: The.Book.Of.Life.2014.REMUX.1080p.BluRay.DTS-HD.MA.7.1.-iFT
Рип-Викс
Синхронизация перевода-Викс
Общее
Уникальный идентификатор : 184455553712427456647262626515287390022 (0x8AC4D8F131ADA43EB43DDCF83E09B746)
Полное имя : G:Готово!!!The.Book.of.Life.2014.x264.BDRip-AVC-MediaClub.mkv
Формат : Matroska
Версия формата : Version 2
Размер файла : 2,18 Гбайт
Продолжительность : 1 ч. 27 м.
Общий поток : 3584 Кбит/сек
Название фильма : The Book of Life (2014) BDRip-AVC =MediaClub= [Викс]
Дата кодирования : UTC 2015-01-18 07:59:50
Программа кодирования : mkvmerge v4.2.0 ('No Talking') сборка от Jul 28 2010 18:38:23
Библиотека кодирования : libebml v1.0.0 + libmatroska v1.0.0
Видео
Идентификатор : 1
Формат : AVC
Формат/Информация : Advanced Video Codec
Профиль формата : High@L4.1
Параметр CABAC формата : Да
Параметр ReFrames формата : 10 кадров
Идентификатор кодека : V_MPEG4/ISO/AVC
Продолжительность : 1 ч. 27 м.
Битрейт : 2750 Кбит/сек
Ширина : 1024 пикселя
Высота : 428 пикселей
Соотношение сторон : 2,40:1
Режим частоты кадров : Постоянный
Частота кадров : 23,976 кадра/сек
Цветовое пространство : YUV
Субдискретизация насыщенности : 4:2:0
Битовая глубина : 8 бит
Тип развёртки : Прогрессивная
Бит/(Пиксели*Кадры) : 0.262
Размер потока : 1,63 Гбайт (75%)
Библиотека кодирования : x264 core 125 r2208 d9d2288
Настройки программы : cabac=1 / ref=10 / deblock=1:-3:-3 / analyse=0x3:0x133 / me=umh / subme=11 / psy=1 / psy_rd=1.00:0.25 / mixed_ref=1 / me_range=48 / chroma_me=1 / trellis=2 / 8x8dct=1 / cqm=0 / deadzone=21,11 / fast_pskip=0 / chroma_qp_offset=-4 / threads=12 / lookahead_threads=2 / sliced_threads=0 / nr=0 / decimate=1 / interlaced=0 / bluray_compat=0 / constrained_intra=0 / bframes=8 / b_pyramid=2 / b_adapt=2 / b_bias=0 / direct=3 / weightb=1 / open_gop=0 / weightp=2 / keyint=240 / keyint_min=23 / scenecut=40 / intra_refresh=0 / rc=2pass / mbtree=0 / bitrate=2750 / ratetol=1.0 / qcomp=0.60 / qpmin=0 / qpmax=69 / qpstep=4 / cplxblur=20.0 / qblur=0.5 / ip_ratio=1.40 / pb_ratio=1.30 / aq=1:1.00
Язык : English
Default : Да
Forced : Нет
Аудио #1
Идентификатор : 2
Формат : AC-3
Формат/Информация : Audio Coding 3
Расширение режима : CM (complete main)
Параметр Endianness формата : Big
Идентификатор кодека : A_AC3
Продолжительность : 1 ч. 27 м.
Вид битрейта : Постоянный
Битрейт : 384 Кбит/сек
Каналы : 6 каналов
Расположение каналов : Front: L C R, Side: L R, LFE
Частота : 48,0 КГц
Битовая глубина : 16 бит
Метод сжатия : С потерями
Размер потока : 240 Мбайт (11%)
Язык : Russian
Default : Да
Forced : Нет
Аудио #2
Идентификатор : 3
Формат : AC-3
Формат/Информация : Audio Coding 3
Расширение режима : CM (complete main)
Параметр Endianness формата : Big
Идентификатор кодека : A_AC3
Продолжительность : 1 ч. 27 м.
Вид битрейта : Постоянный
Битрейт : 448 Кбит/сек
Каналы : 6 каналов
Расположение каналов : Front: L C R, Side: L R, LFE
Частота : 48,0 КГц
Битовая глубина : 16 бит
Метод сжатия : С потерями
Размер потока : 280 Мбайт (13%)
Язык : English
Default : Нет
Forced : Нет

Официальный сайт
Страна: США
Студия: Chatrone, Reel FX Creative Studios, Twentieth Century Fox
Продолжительность: 01:27:13
Перевод: Профессиональный многоголосый (Студия Пиратского Дубляжа)
Файл
Кодек: x264
Качество: BDRip-AVC
Видео: MPEG-4 AVC, 2750 Кбит/с, 1024x428, 23.976 кадр/с
Звук:
Аудио #1: Русский (AC3, 6 ch, 384 Кбит/с) / Любительский многоголосый (Студия Пиратского Дубляжа)
Аудио #2: Английский (AC3, 6 ch, 448 Кбит/с)
Семпл

Релиз от: Рип, работа с аудио - Викс



   Похожие торренты   Торрент   Размер 
В этой теме нет новых непрочитанных сообщений. Книга жизни / The Book of Life (2014) BDRip 1080p

116 | 7

7.76 ГБ

В этой теме нет новых непрочитанных сообщений. Книга жизни / The Book of Life (2014) BDRip 720p | L

850 | 99

4.54 ГБ

В этой теме нет новых непрочитанных сообщений. Книга жизни / The Book of Life (2014) BDRip от New-Team | D

56 | 9

2.33 ГБ

В этой теме нет новых непрочитанных сообщений. Книга жизни / The Book of Life (2014) BDRip 720 от SuperMin

66 | 8

2.75 ГБ

В этой теме нет новых непрочитанных сообщений. Книга жизни / The Book of Life (2014) BDRip-AVC от R.G. HD-Films | 60 fps

120 | 5

3.09 ГБ

В этой теме нет новых непрочитанных сообщений. Книга жизни / The Book of Life (2014) BDRip от Deadmauvlad | D | Лицензия

354 | 17

2.05 ГБ

В этой теме нет новых непрочитанных сообщений. Книга жизни / The Book of Life (2014) BDRip от Twi7ter | D | iTunes

2287 | 117

1.42 ГБ




Вы не можете начинать темы
Вы не можете отвечать на сообщения
Вы не можете редактировать свои сообщения
Вы не можете удалять свои сообщения
Вы не можете добавлять вложения

Перейти:  
Для Мосгорсуда, Роскомнадзора и рекламодателей: mosgorsud-torrent[собачка]yandex.ru
 Вход
ppkBB3cker v.2 © 2008-2014 @ PPK
[ Time : 2.616s | 17 Queries | GZIP : Off ]

cron