img image001 image001 image001 image001 image001 image001 image001 image001 image001 image001 image001 image001 image001 image001 image001

Planets Sun Sun Sun
Статистика раздачи
Автор: Nickolas3434 | Размер: 1.47 ГБ | Добавлен: 19 янв 2015
Раздают: 211    Качают: 13
Скачать торрент
Скачать торрент
Описание торрента

СообщениеДобавлено: 19 янв 2015 

Информация о фильме
Название: Болт и Блип спешат на помощь
Оригинальное название: Bolt & Blip: Battle of the Lunar League
Год выхода: 2011
Жанр: Мультфильм, фантастика, приключения, семейный
Режиссер: Питер Лепениотис, Тим Дикон
В ролях: Мэтт Мюррэй, Терри Макгуррин, Мелисса Альтро, Гленн Колсон, Патрик Гэрроу, Дуэйн Хилл, Мартин Жюльен, Пол Уэнсли, Колин Фокс, Джонатан Уилсон
О фильме:
2080 год, Земля. Благодаря стараниям гениального ученого Доктора Томми на планете прекратились все войны и люди стали жить без забот! В это время на Луне роботы Болт и Блип случайно становятся членами спортивной команды «Роботы грома», которая находится на последней строчке в турнирной таблице игр Лунной Лиги. С помощью своих новых друзей Болт и Блип становятся чемпионами Лиги. Но они вдруг узнают, что Луне и Земле угрожает заклятый враг Доктора Томми — Доктор Блад. «Роботам грома» предстоит нарушить планы Доктора Блада по завоеванию вселенной и спасти Землю и Луну от уничтожения!

Страна: Корея Южная, Канада
Продолжительность: 01:16:54
Перевод: Дублированный Лицензия C DVD5
Файл
Кодек: XviD
Качество: BDRip [BDRemux (HDReactor)]
Видео: 720x400 (1.80:1), 23.976 fps, XviD build 73 ~1816 kbps avg, 0.26 bit/pixel
Звук: AC3, 6 ch, 448 Кбит/с [Rus / ENG]

B0lt.Blip.Battle.0f.the.Lunar.League.2011.D.BDRip.Deadmauvlad.avi
Формат : AVI
Формат/Информация : Audio Video Interleave
Размер файла : 1,47 Гбайт
Продолжительность : 1 ч. 16 м.
Общий поток : 2728 Кбит/сек
Название фильма : B0lt.Blip.Battle.0f.the.Lunar.League.2011.D.BDRip.Deadmauvlad
Режиссёр : Deadmauvlad
Жанр : семейный, фантастик
Программа кодирования : VirtualDubMod 1.5.10.3 | www.virtualdub-fr.org || (build 2550/release)
Формат оригинала/Имя : Мультфильм
Правообладатель : Goldenshara
Видео
Идентификатор : 0
Формат : MPEG-4 Visual
Профиль формата : Advanced Simple@L5
Параметр BVOP формата : 1
Параметр QPel формата : Нет
Параметр GMC формата : Без точки перехода
Параметр матрицы формата : Выборочная
Идентификатор кодека : XVID
Идентификатор кодека/Подсказка : XviD
Продолжительность : 1 ч. 16 м.
Битрейт : 1818 Кбит/сек
Ширина : 720 пикселей
Высота : 400 пикселей
Соотношение сторон : 16:9
Частота кадров : 23,976 кадра/сек
Цветовое пространство : YUV
Субдискретизация насыщенности : 4:2:0
Битовая глубина : 8 бит
Тип развёртки : Прогрессивная
Метод сжатия : С потерями
Бит/(Пиксели*Кадры) : 0.263
Размер потока : 1000 Мбайт (67%)
Библиотека кодирования : XviD 73
Аудио #1
Идентификатор : 1
Формат : AC-3
Формат/Информация : Audio Coding 3
Расширение режима : CM (complete main)
Параметр Endianness формата : Big
Идентификатор кодека : 2000
Продолжительность : 1 ч. 16 м.
Вид битрейта : Постоянный
Битрейт : 448 Кбит/сек
Каналы : 6 каналов
Расположение каналов : Front: L C R, Side: L R, LFE
Частота : 48,0 КГц
Битовая глубина : 16 бит
Метод сжатия : С потерями
Размер потока : 246 Мбайт (16%)
Выравнивание : Разделение по промежуткам
Продолжительность промежутка : 42 мс. (1,00 видеокадр)
Время предзагрузки промежутка : 500 мс.
Аудио #2
Идентификатор : 2
Формат : AC-3
Формат/Информация : Audio Coding 3
Расширение режима : CM (complete main)
Параметр Endianness формата : Big
Идентификатор кодека : 2000
Продолжительность : 1 ч. 16 м.
Вид битрейта : Постоянный
Битрейт : 448 Кбит/сек
Каналы : 6 каналов
Расположение каналов : Front: L C R, Side: L R, LFE
Частота : 48,0 КГц
Битовая глубина : 16 бит
Метод сжатия : С потерями
Размер потока : 246 Мбайт (16%)
Выравнивание : Разделение по промежуткам
Продолжительность промежутка : 42 мс. (1,00 видеокадр)
Время предзагрузки промежутка : 500 мс.

Сравнения с DVDRip http://screenshotcomparison.com/comparison/110195
ЦитатаКто-то писал:

Имя исходника BOLTS_3D_RMX_NNM.iso [22.61 GB]
[*] thx: Genesis



   Похожие торренты   Торрент   Размер 
В этой теме нет новых непрочитанных сообщений. Болт и Блип спешат на помощь / Bolt & Blip: Battle of the Lunar League (2011) DVDRip от Youtracker | D

5 | 2

1.46 ГБ

В этой теме нет новых непрочитанных сообщений. Болт и Блип спешат на помощь / Bolt & Blip: Battle of the Lunar League (2011) DVDRip-AVC от Youtracker | D

18 | 1

1.46 ГБ

В этой теме нет новых непрочитанных сообщений. Болт и Блип спешат на помощь / Bolt & Blip: Battle of the Lunar League (2011) DVDRip от Youtracker | D

6 | 3

744.98 МБ

В этой теме нет новых непрочитанных сообщений. Болт и Блип спешат на помощь / Bolt & Blip: Battle of the Lunar League (2011) HDTV (1080i) от CMEGRoup

13 | 5

3.55 ГБ

В этой теме нет новых непрочитанных сообщений. Болт и Блип спешат на помощь / Bolt & Blip: Battle of the Lunar League (2012) DVD5

6 | 4

3.76 ГБ

В этой теме нет новых непрочитанных сообщений. Роботы Болт и Блип / Болт и Блип спешат на помощь / Bolts & Blip [01x01-26 из 26] (2010) 7DVD5 от Youtracker

0 | 3

28.05 ГБ

В этой теме нет новых непрочитанных сообщений. Роботы Болт и Блип / Bolts & Blip [01x01-26 из 26] (2010) DVDRip от Youtracker | P

12 | 5

8.66 ГБ




Вы не можете начинать темы
Вы не можете отвечать на сообщения
Вы не можете редактировать свои сообщения
Вы не можете удалять свои сообщения
Вы не можете добавлять вложения

Перейти:  
Для Мосгорсуда, Роскомнадзора и рекламодателей: mosgorsud-torrent[собачка]yandex.ru
 Вход
ppkBB3cker v.2 © 2008-2014 @ PPK
[ Time : 0.047s | 17 Queries | GZIP : Off ]

cron