img image001 image001 image001 image001 image001 image001 image001 image001 image001 image001 image001 image001 image001 image001 image001

Planets Sun Sun Sun
Статистика раздачи
Автор: Nickolas3434 | Размер: 5.76 ГБ | Добавлен: 22 янв 2015
Раздают: 35    Качают: 7
Скачать торрент
Скачать торрент
Описание торрента

СообщениеДобавлено: 22 янв 2015 


#77
Информация о фильме
    Русское название: Большие гонки / Флоклипа Гран - При
    Оригинальное название: Flåklypa Grand Prix / Pinchcliffe Grand Prix
    Год выхода: 1975
    Жанр: мультфильм, комедия, приключения, семейный, спорт
    Режиссер: Иво Каприно
    Выпущено: Норвегия
    Продолжительность: 01:28:14
    Перевод: Профессиональный (Двухголосый закадровый)
    Роли озвучивали: Венке Фосс, Пер Теодор Хаген, , Лейф Джастер, Хенки Кольстад, , Рольф Жюст Нильсен, Хэльге Рейсс, Фрэнк Роберт, Кари Симонсен


Сюжет фильма
    Когда ремонтник-изобретатель Теодор Римспоук узнаёт, что его бывший помощник Рудольф Гор-Слайми стал чемпионом автомобильных гонок только благодаря машине, построенной на основе изобретения Теодора, то решает восстановить справедливость. С помощью двух надежных ассистентов он создает новый мощный автомобиль и бросает вызов Рудольфу в самом удивительном и захватывающем гоночном соревновании за всю историю мировой анимации!


Файл
    Качество: BDRip 1080p (исходник Blu-ray Disc)
    Видео: 1920x1080, 8270 Кбит/сек, 24,000 кадр/сек, AVC, x264, High@L4.1, 16:9, 0.166 Бит/[Пиксели*Кадры]
    Аудио 1: AC-3, 448 Кбит/сек, 6 канала(ов), 48,0 КГц - Двухголосый закадровый / Русский
    Аудио 2: AC-3, 640 Кбит/сек, 6 канала(ов), 48,0 КГц - Дублированный / Английский
    Субтитры: Русские | Полные, Английские | Полные
    Форсированные субтитры: Нет
    Чаптеры (Главы): Есть



Автор Рипа: Сообщество:



Format : Matroska
Format version : Version 2
File size : 5.76 GiB
Duration : 1h 28mn
Overall bit rate : 9 360 Kbps
Movie name : Большие гонки.(1975).BDRip.1080p.[envy]
Encoded date : UTC 2015-01-21 12:59:34
Writing application : mkvmerge v5.8.0 ('No Sleep / Pillow') built on Sep 2 2012 15:37:04
Writing library : libebml v1.2.3 + libmatroska v1.3.0
Video
ID : 1
Format : AVC
Format/Info : Advanced Video Codec
Format profile : High@L4.1
Format settings, CABAC : Yes
Format settings, ReFrames : 4 frames
Codec ID : V_MPEG4/ISO/AVC
Duration : 1h 28mn
Bit rate : 8 270 Kbps
Width : 1 920 pixels
Height : 1 080 pixels
Display aspect ratio : 16:9
Frame rate mode : Constant
Frame rate : 24.000 fps
Color space : YUV
Chroma subsampling : 4:2:0
Bit depth : 8 bits
Scan type : Progressive
Bits/(Pixel*Frame) : 0.166
Stream size : 4.98 GiB (86%)
Title : Большие гонки.(1975).BDRip.1080p.[envy]
Writing library : x264 core 144 r2525 40bb568
Encoding settings : cabac=1 / ref=4 / deblock=1:-3:-3 / analyse=0x3:0x113 / me=umh / subme=11 / psy=1 / psy_rd=1.00:0.00 / mixed_ref=1 / me_range=48 / chroma_me=1 / trellis=2 / 8x8dct=1 / cqm=0 / deadzone=21,11 / fast_pskip=0 / chroma_qp_offset=-2 / threads=12 / lookahead_threads=1 / sliced_threads=0 / nr=0 / decimate=1 / interlaced=0 / bluray_compat=0 / constrained_intra=0 / bframes=6 / b_pyramid=2 / b_adapt=2 / b_bias=0 / direct=3 / weightb=1 / open_gop=0 / weightp=2 / keyint=240 / keyint_min=24 / scenecut=40 / intra_refresh=0 / rc=2pass / mbtree=0 / bitrate=8270 / ratetol=2.0 / qcomp=0.60 / qpmin=0 / qpmax=69 / qpstep=4 / cplxblur=20.0 / qblur=0.5 / ip_ratio=1.40 / pb_ratio=1.30 / aq=2:1.00
Language : Norwegian
Default : Yes
Forced : No
Audio #1
ID : 2
Format : AC-3
Format/Info : Audio Coding 3
Mode extension : CM (complete main)
Format settings, Endianness : Big
Codec ID : A_AC3
Duration : 1h 28mn
Bit rate mode : Constant
Bit rate : 448 Kbps
Channel(s) : 6 channels
Channel positions : Front: L C R, Side: L R, LFE
Sampling rate : 48.0 KHz
Bit depth : 16 bits
Compression mode : Lossy
Stream size : 282 MiB (5%)
Title : DVO
Language : Russian
Default : Yes
Forced : No
Audio #2
ID : 3
Format : AC-3
Format/Info : Audio Coding 3
Mode extension : CM (complete main)
Format settings, Endianness : Big
Codec ID : A_AC3
Duration : 1h 28mn
Bit rate mode : Constant
Bit rate : 640 Kbps
Channel(s) : 6 channels
Channel positions : Front: L C R, Side: L R, LFE
Sampling rate : 48.0 KHz
Bit depth : 16 bits
Compression mode : Lossy
Stream size : 403 MiB (7%)
Title : Dub
Language : English
Default : No
Forced : No
Text #1
ID : 4
Format : UTF-8
Codec ID : S_TEXT/UTF8
Codec ID/Info : UTF-8 Plain Text
Title : full
Language : Russian
Default : No
Forced : No
Text #2
ID : 5
Format : UTF-8
Codec ID : S_TEXT/UTF8
Codec ID/Info : UTF-8 Plain Text
Title : full
Language : English
Default : No
Forced : No
Menu
00:00:00.000 : en:00:00:00.000
00:05:43.333 : en:00:05:43.333
00:09:26.500 : en:00:09:26.500
00:13:00.458 : en:00:13:00.458
00:17:38.333 : en:00:17:38.333
00:20:53.417 : en:00:20:53.417
00:25:36.708 : en:00:25:36.708
00:32:21.250 : en:00:32:21.250
00:37:00.208 : en:00:37:00.208
00:42:49.042 : en:00:42:49.042
00:46:53.333 : en:00:46:53.333
00:52:42.167 : en:00:52:42.167
00:59:42.375 : en:00:59:42.375
01:02:54.417 : en:01:02:54.417
01:08:20.250 : en:01:08:20.250
01:13:31.708 : en:01:13:31.708
01:21:55.417 : en:01:21:55.417
01:27:02.042 : en:01:27:02.042


Самые распространенные форматы изображения:

#77



   Похожие торренты   Торрент   Размер 
В этой теме нет новых непрочитанных сообщений. Большие гонки / Flåklypa Grand Prix (1975) HDRip | P2

25 | 5

1.45 ГБ

В этой теме нет новых непрочитанных сообщений. Мотогонки. Moto Grand Prix (Moto3/Moto2/MotoGP). 2016. 12/18. Octo British Grand Prix. Квалификация. Гонка (2016) HDTVRemux 1080i

0 | 0

73.13 ГБ

В этой теме нет новых непрочитанных сообщений. Мотоспорт. Moto Grand Prix (Moto3/Moto2/MotoGP). 2016. 15/18. Motul Grand Prix of Japan [16.10] (2016) WEBRip 720p

1 | 1

4.37 ГБ

В этой теме нет новых непрочитанных сообщений. Мотоспорт. Moto Grand Prix (MotoGP). 2016. 12/18. Octo British Grand Prix. Гонка (2016) WEBRip 720p

0 | 0

1.71 ГБ

В этой теме нет новых непрочитанных сообщений. Мотоспорт. Moto Grand Prix (MotoGP). 2016. 15/18. Motul Grand Prix of Japan [16.10] (2016) HDTV 1080р

1 | 0

4.93 ГБ

В этой теме нет новых непрочитанных сообщений. FIM Speedway Grand Prix 4: Прирожденные гонщики / FIM Speedway Grand Prix 4 (2011) PC | RePack от Fenixx

33 | 2

858.23 МБ

В этой теме нет новых непрочитанных сообщений. Гран При / Grand Prix (1966) BDRip от HQCLUB

15 | 6

2.91 ГБ




Вы не можете начинать темы
Вы не можете отвечать на сообщения
Вы не можете редактировать свои сообщения
Вы не можете удалять свои сообщения
Вы не можете добавлять вложения

Перейти:  
Для Мосгорсуда, Роскомнадзора и рекламодателей: mosgorsud-torrent[собачка]yandex.ru
 Вход
ppkBB3cker v.2 © 2008-2014 @ PPK
[ Time : 0.045s | 17 Queries | GZIP : Off ]

Торрент трекер RUTOR.IN, Не можете зайти на rutor.org? Какой новый адрес рутор? Какое зеркало рутор? Не работает rutor.org и зеркала? Тогда наш торрент специально для вас. Rutor.in неофициальное зеркало rutor. В случае если у Вас заблокирован rutor или вдруг Вы не можете на него зайти, то Вы без труда сможете скачать бесплатно и без рекламы последние новинки кино, игр, сериалов и прочего у нас, на Rutor.in. Не нужно использовать прокси, чтобы зайти на рутор, достаточно воспользоваться нашим ресурсом. Все новые фильмы, игры, сериалы, книги и музыка за 2013 и 2014 годы через торрент бесплатно. Скачивайте фильмы в хорошем качестве, игры для пк, xbox, playstation без регистрации. У нас вы найдете новые Зарубежные сериалы и Русские сериалы 2013, 2014, 2015 годов. Оставайтесь с нами, качайте любимые фильмы, игры, сериалы, книги и музыку.