img image001 image001 image001 image001 image001 image001 image001 image001 image001 image001 image001 image001 image001 image001 image001

Planets Sun Sun Sun
Статистика раздачи
Автор: Nickolas3434 | Размер: 564.45 МБ | Добавлен: 22 янв 2015
Раздают: 68    Качают: 8
Скачать торрент
Скачать торрент
Описание торрента

СообщениеДобавлено: 22 янв 2015 



#77
Информация о фильме
    Русское название: Переменная облачность
    Оригинальное название: Partly Cloudy
    Год выхода: 2009
    Жанр: мультфильм, короткометражка, фэнтези, комедия, семейный
    Режиссер: Питер Сон
    Выпущено: США
    Продолжительность: 00:05:49
    Перевод: Не требуется
    В ролях: Тони Фучиле, Лори Ричардсон


Сюжет фильма
    Эта история нам повествует о взаимоотношениях аистов и облаков. Аисты приносят детей: людям, животным, рыбам, а замечательных деток интересными способами делают облака. Все делают милых и пушистых детей, но есть одно облако, которое отличается от остальных облаков. Оно делает более дерзких зверей таких как: баран, угорь, еж. И даже у этого облака есть верный аист помощник.


Файл
    Качество: BDRip 1080p (исходник Blu-ray Disc)
    Видео: 1920x1080, ~12700 Кбит/сек, 59.940 кадр/сек, AVC, x264, High@L4.1, 16:9, 0.102 Бит/[Пиксели*Кадры]
    Аудио 1: AC-3, 640 Кбит/сек, 6 канала(ов), 48,0 КГц - Оригинал / Английский
    Субтитры: Нет
    Форсированные субтитры: Нет
    Чаптеры (Главы): Нет



Автор Рипа: Сообщество:



Format : Matroska
Format version : Version 2
File size : 564 MiB
Duration : 5mn 49s
Overall bit rate : 13.6 Mbps
Movie name : Переменная облачность.(2009).BDRip.1080p.[envy].[60fps]
Encoded date : UTC 2015-01-22 17:32:29
Writing application : mkvmerge v5.8.0 ('No Sleep / Pillow') built on Sep 2 2012 15:37:04
Writing library : libebml v1.2.3 + libmatroska v1.3.0
Video
ID : 1
Format : AVC
Format/Info : Advanced Video Codec
Format profile : High@L4.1
Format settings, CABAC : Yes
Format settings, ReFrames : 4 frames
Codec ID : V_MPEG4/ISO/AVC
Duration : 5mn 49s
Bit rate : 12.7 Mbps
Width : 1 920 pixels
Height : 1 080 pixels
Display aspect ratio : 16:9
Frame rate mode : Constant
Frame rate : 59.880 fps
Original frame rate : 59.940 fps
Color space : YUV
Chroma subsampling : 4:2:0
Bit depth : 8 bits
Scan type : Progressive
Bits/(Pixel*Frame) : 0.102
Stream size : 527 MiB (93%)
Title : Переменная облачность.(2009).BDRip.1080p.[envy].[60fps]
Writing library : x264 core 130 r2273 b3065e6
Encoding settings : cabac=1 / ref=4 / deblock=1:0:0 / analyse=0x3:0x110 / me=esa / subme=9 / psy=1 / psy_rd=1.00:0.00 / mixed_ref=1 / me_range=42 / chroma_me=1 / trellis=2 / 8x8dct=1 / cqm=0 / deadzone=21,11 / fast_pskip=0 / chroma_qp_offset=-2 / threads=12 / lookahead_threads=2 / sliced_threads=0 / nr=0 / decimate=1 / interlaced=0 / bluray_compat=0 / constrained_intra=0 / bframes=7 / b_pyramid=2 / b_adapt=2 / b_bias=0 / direct=3 / weightb=1 / open_gop=0 / weightp=2 / keyint=250 / keyint_min=25 / scenecut=40 / intra_refresh=0 / rc=crf / mbtree=0 / crf=16.0 / qcomp=0.60 / qpmin=0 / qpmax=69 / qpstep=4 / ip_ratio=1.40 / pb_ratio=1.30 / aq=2:0.90
Language : English
Default : Yes
Forced : No
Audio
ID : 2
Format : AC-3
Format/Info : Audio Coding 3
Mode extension : CM (complete main)
Format settings, Endianness : Big
Codec ID : A_AC3
Duration : 5mn 49s
Bit rate mode : Constant
Bit rate : 640 Kbps
Channel(s) : 6 channels
Channel positions : Front: L C R, Side: L R, LFE
Sampling rate : 48.0 KHz
Bit depth : 16 bits
Compression mode : Lossy
Stream size : 26.6 MiB (5%)
Title : Orig
Language : English
Default : Yes
Forced : No


#77
#77



   Похожие торренты   Торрент   Размер 
В этой теме нет новых непрочитанных сообщений. Переменная облачность / Partly Cloudy (2009) BDRip от HQCLUB

14 | 3

105 МБ

В этой теме нет новых непрочитанных сообщений. Переменная облачность / Partly Cloudy (2009) BDRip 720 от SuperMin

65 | 12

193.48 МБ

В этой теме нет новых непрочитанных сообщений. Переменная облачность / Partly Cloudy (2009) Blu-Ray Remux

30 | 2

1012.97 МБ

В этой теме нет новых непрочитанных сообщений. Последний Единорог / The Last Unicorn (1982) BDRip 1080р от NNNB

66 | 5

7.77 ГБ

В этой теме нет новых непрочитанных сообщений. Облачно, возможны осадки в виде фрикаделек / Cloudy with a Chance of Meatballs (2009) BDRip 1080p

31 | 14

4.37 ГБ

В этой теме нет новых непрочитанных сообщений. Облачно, возможны осадки в виде фрикаделек / Cloudy with a Chance of Meatballs (2009) BDRip от HQ-ViDEO | D

774 | 45

1.46 ГБ

В этой теме нет новых непрочитанных сообщений. Облачно, возможны осадки в виде фрикаделек / Cloudy with a Chance of Meatballs (2009) BDRip от HELLYWOOD

60 | 114

2.02 ГБ




Вы не можете начинать темы
Вы не можете отвечать на сообщения
Вы не можете редактировать свои сообщения
Вы не можете удалять свои сообщения
Вы не можете добавлять вложения

Перейти:  
Для Мосгорсуда, Роскомнадзора и рекламодателей: mosgorsud-torrent[собачка]yandex.ru
 Вход
ppkBB3cker v.2 © 2008-2014 @ PPK
[ Time : 0.023s | 16 Queries | GZIP : Off ]

cron