img image001 image001 image001 image001 image001 image001 image001 image001 image001 image001 image001 image001 image001 image001 image001

Planets Sun Sun Sun
Статистика раздачи
Автор: Nickolas3434 | Размер: 3.97 ГБ | Добавлен: 23 янв 2015
Раздают: 1143    Качают: 7
Скачать торрент
Скачать торрент
Описание торрента

СообщениеДобавлено: 23 янв 2015 


Информация о фильме
Название : Город героев
Оригинальное название : Big Hero 6
Год выхода : 2014
Жанр : мультфильм, боевик, комедия, семейный
Режиссер : Дон Холл, Крис Уильямс
Роли озвучивали : Дженезис Родригез, Джейми Чунг, Алан Тьюдик, Дэймон Уайанс мл., ТиДжей Миллер, Джеймс Кромуэлл, Майя Рудольф, Райан Поттер, Дэниэл Хенни, Скотт Эдсит
Роли дублировали : Даниил Рагин, Максим Сергеев, Игорь Сергеев, Валерий Смекалов, Аделина Червякова

Описание : Юный Хиро Хамада — прирожденный изобретатель и гений конструирования роботов. Вместе со старшим братом Тадаши они воплощают в жизнь самые передовые идеи в Техническом университете города будущего Сан-Франсокио. После серии загадочных событий друзья оказываются в центре коварного заговора. Отчаявшись, Хиро решает использовать веселого и добродушного экспериментального робота Бэймакса, перепрограммировав его в неуязвимую боевую машину.
#77
Премьера (мир): 23 октября 2014
премьера (РФ): 25 октября 2014
релиз на DVD: 3 марта 2015
релиз на Blu-Ray: 3 марта 2015
Страна : США
Производство : Walt Disney Animation Studios, Walt Disney Pictures
Продолжительность : 01:41:51
Перевод : Профессиональный (полное дублирование) [чистый звук] Официальный
Файл
Формат видео : MKV
Качество : DVDScrRemux (Big Hero 6 (2014) DVDSCR2DVD DD2.0 NL Subs [P2H])
Видео : MPEG Video, 720x480 (16:9), 29.970 fps, 5154 Kbps
Аудио 1: Русский, AC3, 128 Кбит/с, 48.0 Hz, 2 ch
Аудио 2: Английский, AC3, 192 Кбит/с, 48.0 Hz, 2 ch
Субтитры 1(srt): Русские
Субтитры 2(srt): Английские




General
Unique ID : 251449671587381533126904374554885979300 (0xBD2B71F8BC33E530B6ABF8CAF3397CA4)
Complete name : E:/Torrent_2/Big Hero 6 (2014, DVDScrRemux, RUS ENG+SUB).mkv
Format : Matroska
Format version : Version 2
File size : 3.97 GiB
Duration : 1h 41mn
Overall bit rate mode : Variable
Overall bit rate : 5 585 Kbps
Encoded date : UTC 2015-01-23 14:18:11
Writing application : mkvmerge v5.5.0 ('Healer') built on Apr 6 2012 21:43:24
Writing library : libebml v1.2.3 + libmatroska v1.3.0
Video #1
ID : 1
Format : MPEG Video
Format version : Version 2
Format profile : Main@Main
Format settings, BVOP : No
Format settings, Matrix : Default
Codec ID : V_MPEG2
Codec ID/Info : MPEG 1 or 2 Video
Bit rate mode : Variable
Bit rate : 5 154 Kbps
Maximum bit rate : 9 508 Kbps
Width : 720 pixels
Height : 480 pixels
Display aspect ratio : 16:9
Frame rate mode : Variable
Original frame rate : 29.970 fps
Standard : NTSC
Color space : YUV
Chroma subsampling : 4:2:0
Bit depth : 8 bits
Scan type : Progressive
Scan order : Bottom Field First
Compression mode : Lossy
Time code of first frame : 00:00:00:00
Time code source : Group of pictures header
Language : English
Default : Yes
Forced : No
Audio #2
ID : 2
Format : AC-3
Format/Info : Audio Coding 3
Mode extension : CM (complete main)
Format settings, Endianness : Big
Codec ID : A_AC3
Duration : 1h 41mn
Bit rate mode : Constant
Bit rate : 128 Kbps
Channel(s) : 2 channels
Channel positions : Front: L R
Sampling rate : 48.0 KHz
Bit depth : 16 bits
Compression mode : Lossy
Delay relative to video : 183ms
Stream size : 93.3 MiB (2%)
Title : DUB
Language : Russian
Default : Yes
Forced : No
Audio #3
ID : 3
Format : AC-3
Format/Info : Audio Coding 3
Mode extension : CM (complete main)
Format settings, Endianness : Big
Codec ID : A_AC3
Duration : 1h 41mn
Bit rate mode : Constant
Bit rate : 192 Kbps
Channel(s) : 2 channels
Channel positions : Front: L R
Sampling rate : 48.0 KHz
Bit depth : 16 bits
Compression mode : Lossy
Stream size : 140 MiB (3%)
Language : English
Default : No
Forced : No
Text #4
ID : 4
Format : UTF-8
Codec ID : S_TEXT/UTF8
Codec ID/Info : UTF-8 Plain Text
Language : Russian
Default : Yes
Forced : No
Text #5
ID : 5
Format : UTF-8
Codec ID : S_TEXT/UTF8
Codec ID/Info : UTF-8 Plain Text
Language : English
Default : No
Forced : No





   Похожие торренты   Торрент   Размер 
В этой теме нет новых непрочитанных сообщений. Город героев / Big Hero 6 (2014) HDRip | Чистый звук

1034 | 16

1.37 ГБ

В этой теме нет новых непрочитанных сообщений. Город героев / Big Hero 6 (2014) WEB-DLRip | Чистый звук

651 | 8

1.37 ГБ

В этой теме нет новых непрочитанных сообщений. Город героев / Big Hero 6 (2014) HDRip AVC | Чистый звук

105 | 3

1.54 ГБ

В этой теме нет новых непрочитанных сообщений. Город героев / Big Hero 6 (2014) WEB-DL 720p | Чистый звук

714 | 5

3.18 ГБ

В этой теме нет новых непрочитанных сообщений. Город героев / Big Hero 6 (2014) WEB-DLRip | Чистый звук

325 | 5

702.4 МБ

В этой теме нет новых непрочитанных сообщений. Город героев / Big Hero 6 (2014) DVDScr | Чистый звук

21943 | 1820

1.37 ГБ

В этой теме нет новых непрочитанных сообщений. Город героев / Big Hero 6 (2014) DVDScr | Чистый звук

350 | 10

699.51 МБ




Вы не можете начинать темы
Вы не можете отвечать на сообщения
Вы не можете редактировать свои сообщения
Вы не можете удалять свои сообщения
Вы не можете добавлять вложения

Перейти:  
Для Мосгорсуда, Роскомнадзора и рекламодателей: mosgorsud-torrent[собачка]yandex.ru
 Вход
ppkBB3cker v.2 © 2008-2014 @ PPK
[ Time : 0.030s | 15 Queries | GZIP : Off ]

Торрент трекер RUTOR.IN, Не можете зайти на rutor.org? Какой новый адрес рутор? Какое зеркало рутор? Не работает rutor.org и зеркала? Тогда наш торрент специально для вас. Rutor.in неофициальное зеркало rutor. В случае если у Вас заблокирован rutor или вдруг Вы не можете на него зайти, то Вы без труда сможете скачать бесплатно и без рекламы последние новинки кино, игр, сериалов и прочего у нас, на Rutor.in. Не нужно использовать прокси, чтобы зайти на рутор, достаточно воспользоваться нашим ресурсом. Все новые фильмы, игры, сериалы, книги и музыка за 2013 и 2014 годы через торрент бесплатно. Скачивайте фильмы в хорошем качестве, игры для пк, xbox, playstation без регистрации. У нас вы найдете новые Зарубежные сериалы и Русские сериалы 2013, 2014, 2015 годов. Оставайтесь с нами, качайте любимые фильмы, игры, сериалы, книги и музыку.