img image001 image001 image001 image001 image001 image001 image001 image001 image001 image001 image001 image001 image001 image001 image001

Planets Sun Sun Sun
Статистика раздачи
Автор: Nickolas3434 | Размер: 1.27 ГБ | Добавлен: 26 янв 2015
Раздают: 87    Качают: 8
Скачать торрент
Скачать торрент
Описание торрента

СообщениеДобавлено: 26 янв 2015 

Информация о фильме
Название: Снежная королева 2: Перезаморозка
Год выхода: 2014
Жанр: мультфильм, фэнтези, приключения, семейный
Режиссер: Алексей Цицилин
В ролях: Иван Охлобыстин, Нюша Шурочкина, Анна Хилькевич, Александр Уман, Игорь Бортник, Алексей Лихницкий, Роман Юнусов, Александр Гудков, Михаил Тихонов
О фильме:
Тщеславный тролль Орм давно мечтает о лаврах героя, и наконец получает этот шанс: северный ветер грозит миру вечной зимой и похищает Марибель. Рука принцессы и королевство троллей достанутся тому, кто вызволит ее из снежного плена. Однажды Орм победил зиму с помощью друзей, теперь он хочет действовать в одиночку. На нем доспехи из сковородок, за ним — отряд трусливых троллей, а впереди — опасный путь к замку Снежной королевы. Но, к счастью, друзья не помнят обид: храбрая Герда, застенчивый Кай, удалая Альфида и весёлая Лута не бросят Орма в беде. А значит их ждут невероятные приключения!

Страна: Россия
Студия: Базелевс Продакшн, Wizart Animation
Продолжительность: 01:13:26
Перевод: Оригинал
Файл
Кодек: MPEG-4 AVC (MKV)
Качество: WEBRip-AVC
Видео: AVC, 1024x432, 2059 Kbps
Звук: AC3, 2 ch, 384 kbps
Субтитры: нет
Семпл

= На теле главного героя мультика — тролля Орма — 2.343.997 волосинок. Аррог менее «волосат» — у него всего лишь 1.311.143 волосинок.
= Персонаж «Северный ветер» состоит из 80.000.000 частиц.
= Самая трудоемкая сцена в фильме — это выныривание рыбы из водопада. Для ее создания потребовалось 25 слоев эффектов. На тесты и производство этой сцены ушло 3 недели.
= Для всех материалов и обсчета спецэффектов мультфильма понадобился сервер в 200 терабайт.
= Для производства этого мультфильма понадобилось бы 997 лет, если бы его делали на одном компьютере.
= В озвучивании англоязычной версии фильма принимали участие следующие актеры:
Орм — Шарлто Копли;
Герда — Белла Торн;
Аррог — Шон Бин;
Альфида — Изабель Фурман;
Король — Джефф Беннетт;
Бабуля — Кэнди Мило;
Лута — Ди Брэдли Бейкер;
Марибель — Сара Крэйвенс;
Рахат — Пэт Фрэли;
Лукум — Билл Чотт.
General
Unique ID : 214869434715897181180834905642396576938 (0xA1A6590C63929ECE9BED0FA9CE746CAA)
Complete name : G:ДИСК 2�4.МУЛЬТФИЛЬМЫСнежная королева 2 Перезаморозка (2014)Snegnaya.Koroleva.2015.WEBRip-AVC.mkv
Format : Matroska
Format version : Version 4 / Version 2
File size : 1.27 GiB
Duration : 1h 13mn
Overall bit rate : 2 480 Kbps
Encoded date : UTC 2015-01-24 17:35:06
Writing application : mkvmerge v7.5.0 ('Glass Culture') 64bit built on Jan 4 2015 16:48:44
Writing library : libebml v1.3.1 + libmatroska v1.4.2
_STATISTICS_WRITING_APP : mkvmerge v7.5.0 ('Glass Culture') 64bit built on Jan 4 2015 16:48:44
_STATISTICS_WRITING_DATE_UTC : 2015-01-24 17:35:06
_STATISTICS_TAGS : BPS DURATION NUMBER_OF_FRAMES NUMBER_OF_BYTES
DURATION : 01:13:26.250000000
NUMBER_OF_FRAMES : 105750
NUMBER_OF_BYTES : 1153531954
Video
ID : 1
Format : AVC
Format/Info : Advanced Video Codec
Format profile : Main@L4.1
Format settings, CABAC : Yes
Format settings, ReFrames : 8 frames
Codec ID : V_MPEG4/ISO/AVC
Duration : 1h 13mn
Bit rate : 2 047 Kbps
Width : 1 024 pixels
Height : 432 pixels
Display aspect ratio : 2.40:1
Frame rate mode : Constant
Frame rate : 24.000 fps
Color space : YUV
Chroma subsampling : 4:2:0
Bit depth : 8 bits
Scan type : Progressive
Bits/(Pixel*Frame) : 0.193
Stream size : 1.05 GiB (83%)
Language : English
Default : Yes
Forced : No
Audio
ID : 2
Format : AC-3
Format/Info : Audio Coding 3
Mode extension : CM (complete main)
Format settings, Endianness : Big
Codec ID : A_AC3
Duration : 1h 13mn
Bit rate mode : Constant
Bit rate : 384 Kbps
Channel(s) : 2 channels
Channel positions : Front: L R
Sampling rate : 48.0 KHz
Bit depth : 16 bits
Compression mode : Lossy
Stream size : 202 MiB (15%)
Default : Yes
Forced : No

Релиз от:



   Похожие торренты   Торрент   Размер 
В этой теме нет новых непрочитанных сообщений. Снежная королева 2: Перезаморозка (2014) WEBRip

297 | 14

686.21 МБ

В этой теме нет новых непрочитанных сообщений. Снежная королева 2: Перезаморозка (2014) WEBRip

6691 | 333

1.37 ГБ

В этой теме нет новых непрочитанных сообщений. Снежная королева 2: Перезаморозка (2014) WEBRip от -=HD-NET=- | КПК

94 | 12

349.5 МБ

В этой теме нет новых непрочитанных сообщений. Снежная королева 2: Перезаморозка (2014) WEBRip 720p

2591 | 43

2.25 ГБ

В этой теме нет новых непрочитанных сообщений. Снежная королева 2: Перезаморозка (2014) WEB-DL 720p | iTunes

1238 | 116

2.49 ГБ

В этой теме нет новых непрочитанных сообщений. Снежная королева 2: Перезаморозка (2014) WEB-DL 720p | iTunes

2310 | 281

2.41 ГБ

В этой теме нет новых непрочитанных сообщений. Снежная королева 2: Перезаморозка (2014) BDRip от HQCLUB

36 | 0

1.45 ГБ




Вы не можете начинать темы
Вы не можете отвечать на сообщения
Вы не можете редактировать свои сообщения
Вы не можете удалять свои сообщения
Вы не можете добавлять вложения

Перейти:  
Для Мосгорсуда, Роскомнадзора и рекламодателей: mosgorsud-torrent[собачка]yandex.ru
 Вход
ppkBB3cker v.2 © 2008-2014 @ PPK
[ Time : 0.043s | 16 Queries | GZIP : Off ]

Торрент трекер RUTOR.IN, Не можете зайти на rutor.org? Какой новый адрес рутор? Какое зеркало рутор? Не работает rutor.org и зеркала? Тогда наш торрент специально для вас. Rutor.in неофициальное зеркало rutor. В случае если у Вас заблокирован rutor или вдруг Вы не можете на него зайти, то Вы без труда сможете скачать бесплатно и без рекламы последние новинки кино, игр, сериалов и прочего у нас, на Rutor.in. Не нужно использовать прокси, чтобы зайти на рутор, достаточно воспользоваться нашим ресурсом. Все новые фильмы, игры, сериалы, книги и музыка за 2013 и 2014 годы через торрент бесплатно. Скачивайте фильмы в хорошем качестве, игры для пк, xbox, playstation без регистрации. У нас вы найдете новые Зарубежные сериалы и Русские сериалы 2013, 2014, 2015 годов. Оставайтесь с нами, качайте любимые фильмы, игры, сериалы, книги и музыку.
cron