img image001 image001 image001 image001 image001 image001 image001 image001 image001 image001 image001 image001 image001 image001 image001

Planets Sun Sun Sun
Статистика раздачи
Автор: Nickolas3434 | Размер: 1.65 ГБ | Добавлен: 29 янв 2015
Раздают: 516    Качают: 11
Скачать торрент
Скачать торрент
Описание торрента

СообщениеДобавлено: 29 янв 2015 


Информация о фильме
Название : Город героев
Оригинальное название : Big Hero 6
Год выхода : 2014
Жанр : мультфильм, боевик, комедия, семейный
Режиссер : Дон Холл, Крис Уильямс
Роли озвучивали : Дженезис Родригез, Джейми Чунг, Алан Тьюдик, Дэймон Уайанс мл., ТиДжей Миллер, Джеймс Кромуэлл, Майя Рудольф, Райан Поттер, Дэниэл Хенни, Скотт Эдсит
Роли дублировали : Даниил Рагин, Максим Сергеев, Игорь Сергеев, Валерий Смекалов, Аделина Червякова

Описание : Юный Хиро Хамада — прирожденный изобретатель и гений конструирования роботов. Вместе со старшим братом Тадаши они воплощают в жизнь самые передовые идеи в Техническом университете города будущего Сан-Франсокио. После серии загадочных событий друзья оказываются в центре коварного заговора. Отчаявшись, Хиро решает использовать веселого и добродушного экспериментального робота Бэймакса, перепрограммировав его в неуязвимую боевую машину.
#77
Премьера (мир): 23 октября 2014
премьера (РФ): 25 октября 2014
релиз на DVD: 3 марта 2015
релиз на Blu-Ray: 3 марта 2015
Страна : США
Производство : Walt Disney Animation Studios, Walt Disney Pictures
Продолжительность : 01:41:51
Перевод : Профессиональный (полное дублирование) [чистый звук] Официальный
Доп. информация: Русские субтитры доделанные. В конце субтитрами переведены не озвученные дубляжом диалоги. Перевод этого отрывка предоставлен: =Dj LizArd=.
Файл
Формат видео : MKV
Качество : DVDScr-AVC
Видео : AVC, 720x304 (2.35:1), 23.976 fps, 2000 Kbps
Аудио 1: Русский, AC3, 128 Кбит/с, 48.0 Hz, 2 ch
Аудио 2: Английский, AC3, 192 Кбит/с, 48.0 Hz, 2 ch
Субтитры 1(srt): Русские
Субтитры 2(srt): Английские




General
Unique ID : 171371838093963470379892314981762816253 (0x80ED03F54046FC70A87E1CFF818758FD)
Complete name : E:.Torrent_2.Big Hero 6 (2014, DVDScr-AVC, RUS ENG+SUB).mkv
Format : Matroska
Format version : Version 2
File size : 1.65 GiB
Duration : 1h 41mn
Overall bit rate : 2 315 Kbps
Encoded date : UTC 2015-01-28 09:19:10
Writing application : mkvmerge v5.5.0 ('Healer') built on Apr 6 2012 21:43:24
Writing library : libebml v1.2.3 + libmatroska v1.3.0
Video #1
ID : 1
Format : AVC
Format/Info : Advanced Video Codec
Format profile : High@L3.1
Format settings, CABAC : Yes
Format settings, ReFrames : 5 frames
Codec ID : V_MPEG4/ISO/AVC
Duration : 1h 41mn
Bit rate : 2 000 Kbps
Width : 720 pixels
Height : 304 pixels
Display aspect ratio : 2.35:1
Frame rate mode : Constant
Frame rate : 23.976 fps
Color space : YUV
Chroma subsampling : 4:2:0
Bit depth : 8 bits
Scan type : Progressive
Bits/(Pixel*Frame) : 0.381
Stream size : 1.39 GiB (84%)
Writing library : x264 core 142 r2455 021c0dc
Encoding settings : cabac=1 / ref=5 / deblock=1:-2:-2 / analyse=0x3:0x113 / me=umh / subme=9 / psy=1 / psy_rd=0.90:0.00 / mixed_ref=1 / me_range=16 / chroma_me=1 / trellis=2 / 8x8dct=1 / cqm=0 / deadzone=21,11 / fast_pskip=1 / chroma_qp_offset=-2 / threads=8 / lookahead_threads=2 / sliced_threads=0 / nr=0 / decimate=1 / interlaced=0 / bluray_compat=0 / constrained_intra=0 / bframes=3 / b_pyramid=2 / b_adapt=2 / b_bias=0 / direct=3 / weightb=1 / open_gop=0 / weightp=2 / keyint=250 / keyint_min=25 / scenecut=40 / intra_refresh=0 / rc_lookahead=50 / rc=abr / mbtree=1 / bitrate=2000 / ratetol=1.0 / qcomp=0.60 / qpmin=0 / qpmax=69 / qpstep=4 / ip_ratio=1.40 / aq=1:1.00
Language : English
Default : Yes
Forced : No
Audio #2
ID : 2
Format : AC-3
Format/Info : Audio Coding 3
Mode extension : CM (complete main)
Format settings, Endianness : Big
Codec ID : A_AC3
Duration : 1h 41mn
Bit rate mode : Constant
Bit rate : 128 Kbps
Channel(s) : 2 channels
Channel positions : Front: L R
Sampling rate : 48.0 KHz
Bit depth : 16 bits
Compression mode : Lossy
Delay relative to video : 96ms
Stream size : 93.3 MiB (6%)
Title : DUB
Language : Russian
Default : Yes
Forced : No
Audio #3
ID : 3
Format : AC-3
Format/Info : Audio Coding 3
Mode extension : CM (complete main)
Format settings, Endianness : Big
Codec ID : A_AC3
Duration : 1h 41mn
Bit rate mode : Constant
Bit rate : 192 Kbps
Channel(s) : 2 channels
Channel positions : Front: L R
Sampling rate : 48.0 KHz
Bit depth : 16 bits
Compression mode : Lossy
Delay relative to video : 9ms
Stream size : 140 MiB (8%)
Language : English
Default : No
Forced : No
Text #4
ID : 4
Format : UTF-8
Codec ID : S_TEXT/UTF8
Codec ID/Info : UTF-8 Plain Text
Language : Russian
Default : Yes
Forced : No
Text #5
ID : 5
Format : UTF-8
Codec ID : S_TEXT/UTF8
Codec ID/Info : UTF-8 Plain Text
Language : English
Default : No
Forced : No

Моя максимальная скорость отдачи 100КБ/c





   Похожие торренты   Торрент   Размер 
В этой теме нет новых непрочитанных сообщений. Город героев / Big Hero 6 (2014) DVDScr | Чистый звук

21943 | 1820

1.37 ГБ

В этой теме нет новых непрочитанных сообщений. Город героев / Big Hero 6 (2014) DVDScr | Чистый звук

350 | 10

699.51 МБ

В этой теме нет новых непрочитанных сообщений. Город героев / Big Hero 6 (2014) DVDScr | Звук с CAMRip

5853 | 49

1.37 ГБ

В этой теме нет новых непрочитанных сообщений. Город героев / Big Hero 6 (2014) DVDScr | Звук с CAMRip

784 | 29

699.51 МБ

В этой теме нет новых непрочитанных сообщений. Город героев / Big Hero 6 (2014) DVDScrRemux | Чистый звук

1143 | 7

3.97 ГБ

В этой теме нет новых непрочитанных сообщений. Город героев / Big Hero 6 (2014) HDRip | Чистый звук | КПК

293 | 13

390.03 МБ

В этой теме нет новых непрочитанных сообщений. Город героев / Big Hero 6 (2014) HDRip AVC | Чистый звук

105 | 3

1.54 ГБ




Вы не можете начинать темы
Вы не можете отвечать на сообщения
Вы не можете редактировать свои сообщения
Вы не можете удалять свои сообщения
Вы не можете добавлять вложения

Перейти:  
Для Мосгорсуда, Роскомнадзора и рекламодателей: mosgorsud-torrent[собачка]yandex.ru
 Вход
ppkBB3cker v.2 © 2008-2014 @ PPK
[ Time : 0.045s | 16 Queries | GZIP : Off ]

Торрент трекер RUTOR.IN, Не можете зайти на rutor.org? Какой новый адрес рутор? Какое зеркало рутор? Не работает rutor.org и зеркала? Тогда наш торрент специально для вас. Rutor.in неофициальное зеркало rutor. В случае если у Вас заблокирован rutor или вдруг Вы не можете на него зайти, то Вы без труда сможете скачать бесплатно и без рекламы последние новинки кино, игр, сериалов и прочего у нас, на Rutor.in. Не нужно использовать прокси, чтобы зайти на рутор, достаточно воспользоваться нашим ресурсом. Все новые фильмы, игры, сериалы, книги и музыка за 2013 и 2014 годы через торрент бесплатно. Скачивайте фильмы в хорошем качестве, игры для пк, xbox, playstation без регистрации. У нас вы найдете новые Зарубежные сериалы и Русские сериалы 2013, 2014, 2015 годов. Оставайтесь с нами, качайте любимые фильмы, игры, сериалы, книги и музыку.