img image001 image001 image001 image001 image001 image001 image001 image001 image001 image001 image001 image001 image001 image001 image001

Planets Sun Sun Sun
Статистика раздачи
Автор: Nickolas3434 | Размер: 3.04 ГБ | Добавлен: 29 янв 2015
Раздают: 5    Качают: 6
Скачать торрент
Скачать торрент
Описание торрента

СообщениеДобавлено: 29 янв 2015 

Информация о фильме
Название: Оранжевый мишка
Оригинальное название: The Tangerine Bear: Home in Time for Christmas!
Год выхода: 2000
Жанр: мультфильм, семейный
Режиссер: Берт Ринг / Bert Ring
В ролях: Том Босли, Дженна Элфман, Хоуи Мэндел, Дэвид Хайд Пирс, Джонатан Тейлор Томас, Марлон Уайанс, Дэвид Л. Лэндер, Клеа Монвиль, Джон Полито, Орландо Браун
О фильме:
Перед Рождеством на фабрике игрушек кипит работа. Все дети ждут подарков, поэтому нужно успеть сделать как можно больше красивых кукол, веселых мартышек и плюшевых медвежат. Но одному медвежонку не повезло — в спешке ему неправильно пришили рот, и вместо улыбки получилась унылая гримаса.
Таким он и попал на магазинную полку, где его никто не хотел покупать. Медвежонок совсем пал духом и уж было решил, что так навсегда и останется один. Но в Рождество всегда случаются чудеса и в маленьком магазинчике, который теперь стал его домом, Мишка неожиданно встречает верных друзей — таких же, как он странных и чудаковатых игрушек.

Страна: США
Продолжительность: 00:47:25
Перевод: Профессиональный (многоголосый, закадровый) [Лицензия]
Файл
Кодек: MPEG2
Качество: DVD5
Видео: 720x576 (PAL 16:9), 25 fps, MPEG-2 Video, Main@Main, ~8000 Kbps avg, 0.772 bit/pixel
Звук: Русский: 48 kHz, AC3 Dolby Digital, 2/0 (L,R) ch, ~192.00 kbps avg [Профессиональный (многоголосый, закадровый)]
Аудио #2: Английский: 48 kHz, AC3 Dolby Digital, 2/0 (L,R) ch, ~192.00 kbps avg [Оригинал]
Субтитры: отсутствуют
Семпл




General
Complete name : G:The_Tangerine_Bear_Home_in_Time_for_ChristmasVIDEO_TSVTS_02_2.VOB
Format : MPEG-PS
File size : 1 024 MiB
Duration : 16mn 47s
Overall bit rate : 8 528 Kbps
Video
ID : 224 (0xE0)
Format : MPEG Video
Format version : Version 2
Format profile : Main@Main
Format settings, BVOP : Yes
Format settings, Matrix : Default
Format settings, GOP : M=2, N=13
Duration : 16mn 46s
Bit rate : 8 000 Kbps
Width : 720 pixels
Height : 576 pixels
Display aspect ratio : 4:3
Frame rate : 25.000 fps
Standard : PAL
Color space : YUV
Chroma subsampling : 4:2:0
Bit depth : 8 bits
Scan type : Interlaced
Scan order : Top Field First
Compression mode : Lossy
Bits/(Pixel*Frame) : 0.772
Time code of first frame : 10:16:46:06
Time code source : Group of pictures header
Stream size : 957 MiB (93%)
Color primaries : BT.601 PAL
Transfer characteristics : BT.470 System B, BT.470 System G
Matrix coefficients : BT.601
Audio #1
ID : 189 (0xBD)-128 (0x80)
Format : AC-3
Format/Info : Audio Coding 3
Mode extension : CM (complete main)
Format settings, Endianness : Big
Muxing mode : DVD-Video
Duration : 16mn 47s
Bit rate mode : Constant
Bit rate : 192 Kbps
Channel(s) : 2 channels
Channel positions : Front: L R
Sampling rate : 48.0 KHz
Bit depth : 16 bits
Compression mode : Lossy
Delay relative to video : -328ms
Stream size : 23.0 MiB (2%)
Audio #2
ID : 189 (0xBD)-129 (0x81)
Format : AC-3
Format/Info : Audio Coding 3
Mode extension : CM (complete main)
Format settings, Endianness : Big
Muxing mode : DVD-Video
Duration : 16mn 47s
Bit rate mode : Constant
Bit rate : 192 Kbps
Channel(s) : 2 channels
Channel positions : Front: L R
Sampling rate : 48.0 KHz
Bit depth : 16 bits
Compression mode : Lossy
Delay relative to video : -328ms
Stream size : 23.0 MiB (2%)
Menu

Релиз от: domin8



   Похожие торренты   Торрент   Размер 
В этой теме нет новых непрочитанных сообщений. Мишка Гумми - Я мишка Гумми / Gummy Bear - Eu Sou O Gummy Bear (2013) DVDRip от Youtracker

427 | 65

295.88 МБ

В этой теме нет новых непрочитанных сообщений. Рождественский коттедж / Christmas Cottage / Thomas Kinkade's Home for Christmas (2008) HDRip

356 | 46

1.46 ГБ

В этой теме нет новых непрочитанных сообщений. Гринч – похититель Рождества / How the Grinch Stole Christmas (2000) DVD5

9 | 4

3.83 ГБ

В этой теме нет новых непрочитанных сообщений. Плюшевый мишка / L'ours en peluche (1994) DVD5

0 | 4

4.24 ГБ

В этой теме нет новых непрочитанных сообщений. Смелого пуля боится или Мишка принимает бой (1970) DVD5

6 | 3

3.54 ГБ

В этой теме нет новых непрочитанных сообщений. Tangerine Dream - The Story Of Tangerine Dream (1992) FLAC

48 | 27

696.02 МБ

В этой теме нет новых непрочитанных сообщений. OST - A Very Eureka Christmas [Original Holiday Soundtrack From the TV Series] [Bear McCreary] (2012) M4A

1 | 2

90.07 МБ




Вы не можете начинать темы
Вы не можете отвечать на сообщения
Вы не можете редактировать свои сообщения
Вы не можете удалять свои сообщения
Вы не можете добавлять вложения

Перейти:  
Для Мосгорсуда, Роскомнадзора и рекламодателей: mosgorsud-torrent[собачка]yandex.ru
 Вход
ppkBB3cker v.2 © 2008-2014 @ PPK
[ Time : 0.028s | 15 Queries | GZIP : Off ]

Торрент трекер RUTOR.IN, Не можете зайти на rutor.org? Какой новый адрес рутор? Какое зеркало рутор? Не работает rutor.org и зеркала? Тогда наш торрент специально для вас. Rutor.in неофициальное зеркало rutor. В случае если у Вас заблокирован rutor или вдруг Вы не можете на него зайти, то Вы без труда сможете скачать бесплатно и без рекламы последние новинки кино, игр, сериалов и прочего у нас, на Rutor.in. Не нужно использовать прокси, чтобы зайти на рутор, достаточно воспользоваться нашим ресурсом. Все новые фильмы, игры, сериалы, книги и музыка за 2013 и 2014 годы через торрент бесплатно. Скачивайте фильмы в хорошем качестве, игры для пк, xbox, playstation без регистрации. У нас вы найдете новые Зарубежные сериалы и Русские сериалы 2013, 2014, 2015 годов. Оставайтесь с нами, качайте любимые фильмы, игры, сериалы, книги и музыку.