img image001 image001 image001 image001 image001 image001 image001 image001 image001 image001 image001 image001 image001 image001 image001

Planets Sun Sun Sun
Статистика раздачи
Автор: Nickolas3434 | Размер: 1.61 ГБ | Добавлен: 30 янв 2015
Раздают: 895    Качают: 58
Скачать торрент
Скачать торрент
Описание торрента

СообщениеДобавлено: 30 янв 2015 

Информация о фильме
Оригинальное название: Снежная королева 2: Перезаморозка
Год выпуска: 2014
Жанр: Мультфильм, фэнтези, приключения, семейный, полнометражный
Выпущено: Россия, Базелевс Продакшн, Wizart Animation
Режиссер: Алексей Цицилин
В ролях: Иван Охлобыстин, Нюша Шурочкина, Анна Хилькевич, Александр Уман, Игорь Бортник, Алексей Лихницкий, Роман Юнусов, Александр Гудков, Михаил Тихонов
О фильме: Тщеславный тролль Орм давно мечтает о лаврах героя, и наконец получает этот шанс: северный ветер грозит миру вечной зимой и похищает Марибель. Рука принцессы и королевство троллей достанутся тому, кто вызволит ее из снежного плена. Однажды Орм победил зиму с помощью друзей, теперь он хочет действовать в одиночку. На нем доспехи из сковородок, за ним — отряд трусливых троллей, а впереди — опасный путь к замку Снежной королевы. Но, к счастью, друзья не помнят обид: храбрая Герда, застенчивый Кай, удалая Альфида и весёлая Лута не бросят Орма в беде. А значит их ждут невероятные приключения!

Файл
Качество: WEB-DLRip (AVC)
Видео: MPEG-4 AVC, 2555 Кбит/с, 1024x430, 24 кадр/с
Аудио: AC3, 6 ch, 384 Кбит/с
Размер: 1.61 ГБ
Продолжительность: 01:13:26
Язык: Русский
Озвучивание - Дублированное (iTunes Russia)
Сохранены оригинальные чаптеры как на исходном WEB-DL.
Общее
Уникальный идентификатор : 170324821613613273427257043453069783297 (0x80235E0F5B05CB8CA3D5E1B4897C7101)
Полное имя : D:ЗагрузкиSneznaja.Koroleva.Perezamorozka.2014.x264.WEB-DLRip.(AVC).ExKinoRay.mkv
Формат : Matroska
Версия формата : Version 2
Размер файла : 1,61 Гбайт
Продолжительность : 1 ч. 18 м.
Общий поток : 2940 Кбит/сек
Название фильма : Снежная королева 2: Перезаморозка.2014.Rip by: ollan
Дата кодирования : UTC 2015-01-30 12:05:54
Программа кодирования : mkvmerge v5.6.0 ('Kenya Kane') built on May 27 2012 16:44:04
Библиотека кодирования : libebml v1.2.3 + libmatroska v1.3.0
Видео
Идентификатор : 1
Формат : AVC
Формат/Информация : Advanced Video Codec
Профиль формата : High@L4.1
Параметр CABAC формата : Да
Параметр ReFrames формата : 9 кадров
Идентификатор кодека : V_MPEG4/ISO/AVC
Продолжительность : 1 ч. 18 м.
Битрейт : 2555 Кбит/сек
Ширина : 1024 пикселя
Высота : 430 пикселей
Соотношение сторон : 2,40:1
Режим частоты кадров : Постоянный
Частота кадров : 24,000 кадра/сек
Цветовое пространство : YUV
Субдискретизация насыщенности : 4:2:0
Битовая глубина : 8 бит
Тип развёртки : Прогрессивная
Бит/(Пиксели*Кадры) : 0.242
Размер потока : 1,37 Гбайт (85%)
Библиотека кодирования : x264 core 125 r2200 999b753
Настройки программы : cabac=1 / ref=9 / deblock=1:-3:-3 / analyse=0x3:0x133 / me=umh / subme=11 / psy=1 / psy_rd=1.00:0.10 / mixed_ref=1 / me_range=32 / chroma_me=1 / trellis=2 / 8x8dct=1 / cqm=0 / deadzone=21,11 / fast_pskip=0 / chroma_qp_offset=-3 / threads=12 / lookahead_threads=2 / sliced_threads=0 / nr=0 / decimate=0 / interlaced=0 / bluray_compat=0 / constrained_intra=0 / bframes=9 / b_pyramid=2 / b_adapt=2 / b_bias=0 / direct=3 / weightb=1 / open_gop=0 / weightp=2 / keyint=240 / keyint_min=23 / scenecut=40 / intra_refresh=0 / rc=2pass / mbtree=0 / bitrate=2555 / ratetol=1.0 / qcomp=0.60 / qpmin=0 / qpmax=69 / qpstep=4 / cplxblur=20.0 / qblur=0.5 / ip_ratio=1.40 / pb_ratio=1.30 / aq=1:1.00
Язык : Russian
Default : Да
Forced : Нет
Аудио
Идентификатор : 2
Формат : AC-3
Формат/Информация : Audio Coding 3
Расширение режима : CM (complete main)
Параметр Endianness формата : Big
Идентификатор кодека : A_AC3
Продолжительность : 1 ч. 18 м.
Вид битрейта : Постоянный
Битрейт : 384 Кбит/сек
Каналы : 6 каналов
Расположение каналов : Front: L C R, Side: L R, LFE
Частота : 48,0 КГц
Битовая глубина : 16 бит
Метод сжатия : С потерями
Размер потока : 215 Мбайт (13%)
Язык : Russian
Default : Да
Forced : Нет
Меню
00:00:00.000 : ru:Chapter 01
00:05:00.000 : ru:Chapter 02
00:09:13.000 : ru:Chapter 03
00:14:18.000 : ru:Chapter 04
00:20:49.000 : ru:Chapter 05
00:26:41.000 : ru:Chapter 06
00:32:15.000 : ru:Chapter 07
00:37:27.000 : ru:Chapter 08
00:41:54.000 : ru:Chapter 09
00:47:19.000 : ru:Chapter 10
00:52:57.000 : ru:Chapter 11
00:57:09.000 : ru:Chapter 12
01:01:48.000 : ru:Chapter 13
01:06:38.000 : ru:Chapter 14
01:10:37.000 : ru:Chapter 15





Релиз от: Rip by:



   Похожие торренты   Торрент   Размер 
В этой теме нет новых непрочитанных сообщений. Снежная королева 2: Перезаморозка (2014) WEB-DLRip от ExKinoRay | iTunes Russia

845 | 73

749.08 МБ

В этой теме нет новых непрочитанных сообщений. Снежная королева 2: Перезаморозка (2014) BDRip-AVC от ExKinoRay | iTunes

350 | 5

2.19 ГБ

В этой теме нет новых непрочитанных сообщений. Снежная королева 2: Перезаморозка (2014) WEB-DLRip | iTunes

8840 | 278

1.37 ГБ

В этой теме нет новых непрочитанных сообщений. Снежная королева 2: Перезаморозка (2014) WEB-DL 720p | iTunes

1238 | 116

2.49 ГБ

В этой теме нет новых непрочитанных сообщений. Снежная королева 2: Перезаморозка (2014) WEB-DL 720p | iTunes

2310 | 281

2.41 ГБ

В этой теме нет новых непрочитанных сообщений. Снежная королева 2: Перезаморозка (2014) BDRip от Twi7ter | iTunes

1713 | 34

1.43 ГБ

В этой теме нет новых непрочитанных сообщений. Снежная королева 2: Перезаморозка (2014) BDRip 1080p от Ash61 | 3D-Video | halfOU | iTunes

175 | 13

8.07 ГБ




Вы не можете начинать темы
Вы не можете отвечать на сообщения
Вы не можете редактировать свои сообщения
Вы не можете удалять свои сообщения
Вы не можете добавлять вложения

Перейти:  
Для Мосгорсуда, Роскомнадзора и рекламодателей: mosgorsud-torrent[собачка]yandex.ru
 Вход
ppkBB3cker v.2 © 2008-2014 @ PPK
[ Time : 0.045s | 16 Queries | GZIP : Off ]

Торрент трекер RUTOR.IN, Не можете зайти на rutor.org? Какой новый адрес рутор? Какое зеркало рутор? Не работает rutor.org и зеркала? Тогда наш торрент специально для вас. Rutor.in неофициальное зеркало rutor. В случае если у Вас заблокирован rutor или вдруг Вы не можете на него зайти, то Вы без труда сможете скачать бесплатно и без рекламы последние новинки кино, игр, сериалов и прочего у нас, на Rutor.in. Не нужно использовать прокси, чтобы зайти на рутор, достаточно воспользоваться нашим ресурсом. Все новые фильмы, игры, сериалы, книги и музыка за 2013 и 2014 годы через торрент бесплатно. Скачивайте фильмы в хорошем качестве, игры для пк, xbox, playstation без регистрации. У нас вы найдете новые Зарубежные сериалы и Русские сериалы 2013, 2014, 2015 годов. Оставайтесь с нами, качайте любимые фильмы, игры, сериалы, книги и музыку.
cron