img image001 image001 image001 image001 image001 image001 image001 image001 image001 image001 image001 image001 image001 image001 image001

Planets Sun Sun Sun
Статистика раздачи
Автор: Nickolas3434 | Размер: 7.77 ГБ | Добавлен: 02 фев 2015
Раздают: 66    Качают: 5
Скачать торрент
Скачать торрент
Описание торрента

СообщениеДобавлено: 02 фев 2015 


#77
Информация о фильме
    Русское название: Последний Единорог
    Оригинальное название: The Last Unicorn
    Год выхода: 1982
    Жанр: мультфильм, фэнтези, семейный
    Режиссер: Джулз Басс, Артур Ранкин мл.
    Выпущено: США, Великобритания, Япония, Германия (ФРГ)
    Продолжительность: 01:33:03
    Перевод: Профессиональный (многоголосый, закадровый)
    Роли озвучивали: Алан Аркин, Джеф Бриджес, Миа Ферроу Темми Гримс, Роберт Клейн, Анжела Ленсбери, Кристофер Ли


Сюжет фильма
    В далекой волшебной стране в сиреневой роще жил юный прекрасный единорог, знающий секреты магии. Однажды он узнал, что все его сородичи исчезли с лица земли, и он может стать последним единорогом на свете. И тогда единорог покинул свою рощу и отправился в долгое и опасное путешествие, чтобы разыскать и спасти своих сородичей. Много приключений пришлось ему пережить и многих опасных врагов довелось повстречать - свиноподобную ведьму Матушку Фортуну, шайку разбойников капитана Калли, злобного и жадного короля Хэггорда. Но с помощью верных друзей - волшебника-недоучки Шмендрика, девушки Молли и прекрасного принца Лира - единорогу удалось одолеть огромного и страшного Красного Быка и освободить своих собратьев-единорогов.


Файл
    Качество: BDRip 1080p (исходник Blu-ray Disc Remux)
    Видео: 1920x1038, 11078 Кбит/сек, 23,976 кадр/сек, AVC, x264, High@L4.1, 1.85:1, 0.232 Бит/[Пиксели*Кадры]
    Аудио 1: AC-3, 224 Кбит/сек, 2 канала(ов), 48,0 КГц - Многоголосый закадровый / Русский
    Аудио 2: AC-3, 640 Кбит/сек, 6 канала(ов), 48,0 КГц - Оригинал / Английский
    Субтитры: Русские | Полные, Английские | Полные
    Форсированные субтитры: Нет
    Чаптеры (Главы): Есть



Автор Рипа: Сообщество:



Format : Matroska
Format version : Version 2
File size : 7.77 GiB
Duration : 1h 33mn
Overall bit rate : 11.9 Mbps
Movie name : Последний Единорог.(1982).BDRip.1080p.[envy]
Encoded date : UTC 2015-01-31 11:42:09
Writing application : mkvmerge v5.8.0 ('No Sleep / Pillow') built on Sep 2 2012 15:37:04
Writing library : libebml v1.2.3 + libmatroska v1.3.0
Video
ID : 1
Format : AVC
Format/Info : Advanced Video Codec
Format profile : High@L4.1
Format settings, CABAC : Yes
Format settings, ReFrames : 4 frames
Codec ID : V_MPEG4/ISO/AVC
Duration : 1h 33mn
Bit rate : 11.1 Mbps
Width : 1 920 pixels
Height : 1 038 pixels
Display aspect ratio : 1.85:1
Frame rate mode : Constant
Frame rate : 23.976 fps
Color space : YUV
Chroma subsampling : 4:2:0
Bit depth : 8 bits
Scan type : Progressive
Bits/(Pixel*Frame) : 0.232
Stream size : 7.05 GiB (91%)
Title : Последний Единорог.(1982).BDRip.1080p.[envy]
Writing library : x264 core 144 r2525 40bb568
Encoding settings : cabac=1 / ref=4 / deblock=1:-1:-1 / analyse=0x3:0x113 / me=umh / subme=11 / psy=1 / psy_rd=1.00:0.00 / mixed_ref=1 / me_range=48 / chroma_me=1 / trellis=2 / 8x8dct=1 / cqm=0 / deadzone=21,11 / fast_pskip=0 / chroma_qp_offset=-2 / threads=12 / lookahead_threads=1 / sliced_threads=0 / nr=0 / decimate=1 / interlaced=0 / bluray_compat=0 / constrained_intra=0 / bframes=6 / b_pyramid=2 / b_adapt=2 / b_bias=0 / direct=3 / weightb=1 / open_gop=0 / weightp=2 / keyint=240 / keyint_min=23 / scenecut=40 / intra_refresh=0 / rc=2pass / mbtree=0 / bitrate=11078 / ratetol=2.0 / qcomp=0.60 / qpmin=0 / qpmax=69 / qpstep=4 / cplxblur=20.0 / qblur=0.5 / ip_ratio=1.40 / pb_ratio=1.30 / aq=2:1.00
Language : English
Default : Yes
Forced : No
Audio #1
ID : 2
Format : AC-3
Format/Info : Audio Coding 3
Format profile : Dolby Digital
Mode extension : CM (complete main)
Format settings, Endianness : Big
Codec ID : A_AC3
Duration : 1h 33mn
Bit rate mode : Constant
Bit rate : 224 Kbps
Channel(s) : 2 channels
Channel positions : Front: L R
Sampling rate : 48.0 KHz
Bit depth : 16 bits
Compression mode : Lossy
Stream size : 149 MiB (2%)
Title : MVO
Language : Russian
Default : Yes
Forced : No
Audio #2
ID : 3
Format : AC-3
Format/Info : Audio Coding 3
Mode extension : CM (complete main)
Format settings, Endianness : Big
Codec ID : A_AC3
Duration : 1h 33mn
Bit rate mode : Constant
Bit rate : 640 Kbps
Channel(s) : 6 channels
Channel positions : Front: L C R, Side: L R, LFE
Sampling rate : 48.0 KHz
Bit depth : 16 bits
Compression mode : Lossy
Stream size : 426 MiB (5%)
Title : Eng
Language : English
Default : No
Forced : No
Text #1
ID : 4
Format : UTF-8
Codec ID : S_TEXT/UTF8
Codec ID/Info : UTF-8 Plain Text
Title : full
Language : Russian
Default : No
Forced : No
Text #2
ID : 5
Format : UTF-8
Codec ID : S_TEXT/UTF8
Codec ID/Info : UTF-8 Plain Text
Title : full
Language : English
Default : No
Forced : No
Menu
00:00:00.000 : :Chapter 01
00:03:29.626 : :Chapter 02
00:06:39.857 : :Chapter 03
00:08:34.222 : :Chapter 04
00:10:13.863 : :Chapter 05
00:13:25.095 : :Chapter 06
00:17:15.784 : :Chapter 07
00:21:53.353 : :Chapter 08
00:25:42.707 : :Chapter 09
00:28:24.494 : :Chapter 10
00:30:17.899 : :Chapter 11
00:34:20.892 : :Chapter 12
00:38:20.339 : :Chapter 13
00:40:45.109 : :Chapter 14
00:44:40.219 : :Chapter 15
00:47:40.941 : :Chapter 16
00:49:29.925 : :Chapter 17
00:53:28.955 : :Chapter 18
00:57:00.750 : :Chapter 19
00:59:38.825 : :Chapter 20
01:02:05.972 : :Chapter 21
01:05:50.780 : :Chapter 22
01:08:07.166 : :Chapter 23
01:13:08.801 : :Chapter 24
01:16:26.790 : :Chapter 25
01:19:48.450 : :Chapter 26
01:23:26.126 : :Chapter 27
01:26:29.726 : :Chapter 28


#77



   Похожие торренты   Торрент   Размер 
В этой теме нет новых непрочитанных сообщений. Последний Единорог / The Last Unicorn (1982) BDRip 720p

0 | 2

3.41 ГБ

В этой теме нет новых непрочитанных сообщений. Последний Единорог / The Last Unicorn (1982) BDRip от HQCLUB

84 | 6

1.45 ГБ

В этой теме нет новых непрочитанных сообщений. Последний единорог / The Last Unicorn (1982) BDRip-AVC от MediaClub | D, P

26 | 4

2.71 ГБ

В этой теме нет новых непрочитанных сообщений. Последний Единорог / The Last Unicorn (1982) BDRip 1080p

7 | 1

5.6 ГБ

В этой теме нет новых непрочитанных сообщений. Последний единорог / The Last Unicorn (1982) BDRip 720p от Koenig | Enchanted Edition | D, P

5 | 1

4.37 ГБ

В этой теме нет новых непрочитанных сообщений. Последний единорог / The Last Unicorn (1982) DVD9 | A

21 | 4

6.53 ГБ

В этой теме нет новых непрочитанных сообщений. Последний Единорог / The Last Unicorn (1982) BDRemux

0 | 1

25.41 ГБ




Вы не можете начинать темы
Вы не можете отвечать на сообщения
Вы не можете редактировать свои сообщения
Вы не можете удалять свои сообщения
Вы не можете добавлять вложения

Перейти:  
Для Мосгорсуда, Роскомнадзора и рекламодателей: mosgorsud-torrent[собачка]yandex.ru
 Вход
ppkBB3cker v.2 © 2008-2014 @ PPK
[ Time : 0.546s | 14 Queries | GZIP : Off ]

Торрент трекер RUTOR.IN, Не можете зайти на rutor.org? Какой новый адрес рутор? Какое зеркало рутор? Не работает rutor.org и зеркала? Тогда наш торрент специально для вас. Rutor.in неофициальное зеркало rutor. В случае если у Вас заблокирован rutor или вдруг Вы не можете на него зайти, то Вы без труда сможете скачать бесплатно и без рекламы последние новинки кино, игр, сериалов и прочего у нас, на Rutor.in. Не нужно использовать прокси, чтобы зайти на рутор, достаточно воспользоваться нашим ресурсом. Все новые фильмы, игры, сериалы, книги и музыка за 2013 и 2014 годы через торрент бесплатно. Скачивайте фильмы в хорошем качестве, игры для пк, xbox, playstation без регистрации. У нас вы найдете новые Зарубежные сериалы и Русские сериалы 2013, 2014, 2015 годов. Оставайтесь с нами, качайте любимые фильмы, игры, сериалы, книги и музыку.