img image001 image001 image001 image001 image001 image001 image001 image001 image001 image001 image001 image001 image001 image001 image001

Planets Sun Sun Sun
Статистика раздачи
Автор: Nickolas3434 | Размер: 2.13 ГБ | Добавлен: 02 фев 2015
Раздают: 1301    Качают: 65
Скачать торрент
Скачать торрент
Описание торрента

СообщениеДобавлено: 02 фев 2015 

Информация о фильме
Название: Барби: Супер Принцесса
Оригинальное название: Barbie in Princess Power
Год выхода: 2015
Жанр: мультфильм
Режиссер: Зик Нортон
В ролях: Бриттни Ирвин, Майкл Копса, Келли Шеридан
О фильме: Барби блистает в роли Кары, современной принцессы, которая живет самой обыкновенной жизнью. Но после поцелуя волшебной бабочки Кара обнаруживает, что обладает магическими силами и может превращаться в Супер Принцессу, которая летает по всему королевству и готова победить любое зло.

Выпущено: Mattel Playground Productions
Продолжительность: 01:13:47
Перевод: Дублированный (лицензия)
Файл
Кодек: x264
Качество: BDRip (источник: Blu-ray Disc)
Видео: 1280x720 (16:9), 23.976 fps, 3240 kbps
Аудио #1: AC-3, 6 ch, 448 kbps (Rus)
Аудио #2: AC-3, 6 ch, 448 kbps (Eng)
Субтитры: Английские
Скачать: сэмпл
Скриншоты

Общее
Уникальный идентификатор : 171993787663064783270096109398850706533 (0x8164CC7073D14D3C83DCC66D80EA9C65)
Полное имя : Barbie.in.Princess.Power.2015.BDRip.720p.Rus.Eng.mkv
Формат : Matroska
Версия формата : Version 2
Размер файла : 2,13 Гбайт
Продолжительность : 1 ч. 13 м.
Общий поток : 4136 Кбит/сек
Название фильма : Барби: Супер Принцесса / Barbie in Princess Power (2015)
Дата кодирования : UTC 2015-02-01 17:35:39
Программа кодирования : mkvmerge v5.8.0 ('No Sleep / Pillow') built on Sep 2 2012 15:37:04
Библиотека кодирования : libebml v1.2.3 + libmatroska v1.3.0
Видео
Идентификатор : 1
Формат : AVC
Формат/Информация : Advanced Video Codec
Профиль формата : High@L4.1
Параметр CABAC формата : Да
Параметр ReFrames формата : 7 кадров
Идентификатор кодека : V_MPEG4/ISO/AVC
Продолжительность : 1 ч. 13 м.
Битрейт : 3239 Кбит/сек
Ширина : 1280 пикселей
Высота : 720 пикселей
Соотношение сторон : 16:9
Режим частоты кадров : Постоянный
Частота кадров : 23,976 кадра/сек
Цветовое пространство : YUV
Субдискретизация насыщенности : 4:2:0
Битовая глубина : 8 бит
Тип развёртки : Прогрессивная
Бит/(Пиксели*Кадры) : 0.147
Размер потока : 1,63 Гбайт (76%)
Заголовок : Release by AlexKa
Библиотека кодирования : x264 core 144 r2525 40bb568
Настройки программы : cabac=1 / ref=7 / deblock=1:0:0 / analyse=0x3:0x133 / me=umh / subme=11 / psy=1 / psy_rd=1.00:0.00 / mixed_ref=1 / me_range=32 / chroma_me=1 / trellis=2 / 8x8dct=1 / cqm=0 / deadzone=21,11 / fast_pskip=0 / chroma_qp_offset=-2 / threads=12 / lookahead_threads=2 / sliced_threads=0 / nr=0 / decimate=0 / interlaced=0 / bluray_compat=0 / constrained_intra=0 / bframes=7 / b_pyramid=2 / b_adapt=2 / b_bias=0 / direct=3 / weightb=1 / open_gop=0 / weightp=2 / keyint=240 / keyint_min=23 / scenecut=40 / intra_refresh=0 / rc=2pass / mbtree=0 / bitrate=3239 / ratetol=1.0 / qcomp=0.60 / qpmin=0 / qpmax=69 / qpstep=4 / cplxblur=20.0 / qblur=0.5 / ip_ratio=1.40 / pb_ratio=1.30 / aq=1:1.00
Язык : English
Аудио #1
Идентификатор : 2
Формат : AC-3
Формат/Информация : Audio Coding 3
Расширение режима : CM (complete main)
Параметр Endianness формата : Big
Идентификатор кодека : A_AC3
Продолжительность : 1 ч. 13 м.
Вид битрейта : Постоянный
Битрейт : 448 Кбит/сек
Каналы : 6 каналов
Расположение каналов : Front: L C R, Side: L R, LFE
Частота : 48,0 КГц
Битовая глубина : 16 бит
Метод сжатия : С потерями
Размер потока : 236 Мбайт (11%)
Заголовок : Rus
Язык : Russian
Аудио #2
Идентификатор : 3
Формат : AC-3
Формат/Информация : Audio Coding 3
Расширение режима : CM (complete main)
Параметр Endianness формата : Big
Идентификатор кодека : A_AC3
Продолжительность : 1 ч. 13 м.
Вид битрейта : Постоянный
Битрейт : 448 Кбит/сек
Каналы : 6 каналов
Расположение каналов : Front: L C R, Side: L R, LFE
Частота : 48,0 КГц
Битовая глубина : 16 бит
Метод сжатия : С потерями
Размер потока : 236 Мбайт (11%)
Заголовок : Eng
Язык : English
Текст
Идентификатор : 4
Формат : UTF-8
Идентификатор кодека : S_TEXT/UTF8
Идентификатор кодека/Информация : UTF-8 Plain Text
Заголовок : Eng
Язык : English
Меню
00:00:00.000 : :Chapter 01
00:04:49.497 : :Chapter 02
00:09:22.186 : :Chapter 03
00:16:23.774 : :Chapter 04
00:23:26.196 : :Chapter 05
00:28:24.160 : :Chapter 06
00:33:44.313 : :Chapter 07
00:40:29.051 : :Chapter 08
00:48:55.223 : :Chapter 09
00:55:24.779 : :Chapter 10
01:00:39.093 : :Chapter 11
01:07:41.182 : :Chapter 12
01:13:46.380 : :Chapter 13
x264 [info]: frame I:970 Avg QP:14.58 size: 99041
x264 [info]: frame P:32648 Avg QP:17.39 size: 31009
x264 [info]: frame B:72514 Avg QP:19.29 size: 9418
x264 [info]: consecutive B-frames: 7.6% 7.7% 20.1% 27.6% 15.8% 18.0% 1.9% 1.2%



   Похожие торренты   Торрент   Размер 
В этой теме нет новых непрочитанных сообщений. Барби: Супер Принцесса / Barbie in Princess Power (2015) BDRip-AVC | D

970 | 39

1.56 ГБ

В этой теме нет новых непрочитанных сообщений. Барби: Супер Принцесса / Barbie in Princess Power (2015) HDRip от -=HD-NET=- | КПК | Лицензия

250 | 15

314.7 МБ

В этой теме нет новых непрочитанных сообщений. Барби: Супер Принцесса / Barbie in Princess Power (2015) HDRip | D | Лицензия

303 | 35

1.37 ГБ

В этой теме нет новых непрочитанных сообщений. Барби: Супер Принцесса / Barbie in Princess Power (2015) HDRip | Лицензия

1343 | 57

1.37 ГБ

В этой теме нет новых непрочитанных сообщений. Барби: Жемчужная Принцесса / Barbie: The Pearl Princess (2014) BDRip | Лицензия

1192 | 147

1.37 ГБ

В этой теме нет новых непрочитанных сообщений. Барби: Жемчужная Принцесса / Barbie: The Pearl Princess (2014) BDRip 720 от SuperMin

305 | 32

2.13 ГБ

В этой теме нет новых непрочитанных сообщений. Барби: Жемчужная Принцесса / Barbie: The Pearl Princess (2014) BDRip-AVC от ExKinoRay | Лицензия

144 | 50

2.09 ГБ




Вы не можете начинать темы
Вы не можете отвечать на сообщения
Вы не можете редактировать свои сообщения
Вы не можете удалять свои сообщения
Вы не можете добавлять вложения

Перейти:  
Для Мосгорсуда, Роскомнадзора и рекламодателей: mosgorsud-torrent[собачка]yandex.ru
 Вход
ppkBB3cker v.2 © 2008-2014 @ PPK
[ Time : 0.527s | 16 Queries | GZIP : Off ]

Торрент трекер RUTOR.IN, Не можете зайти на rutor.org? Какой новый адрес рутор? Какое зеркало рутор? Не работает rutor.org и зеркала? Тогда наш торрент специально для вас. Rutor.in неофициальное зеркало rutor. В случае если у Вас заблокирован rutor или вдруг Вы не можете на него зайти, то Вы без труда сможете скачать бесплатно и без рекламы последние новинки кино, игр, сериалов и прочего у нас, на Rutor.in. Не нужно использовать прокси, чтобы зайти на рутор, достаточно воспользоваться нашим ресурсом. Все новые фильмы, игры, сериалы, книги и музыка за 2013 и 2014 годы через торрент бесплатно. Скачивайте фильмы в хорошем качестве, игры для пк, xbox, playstation без регистрации. У нас вы найдете новые Зарубежные сериалы и Русские сериалы 2013, 2014, 2015 годов. Оставайтесь с нами, качайте любимые фильмы, игры, сериалы, книги и музыку.