img image001 image001 image001 image001 image001 image001 image001 image001 image001 image001 image001 image001 image001 image001 image001

Planets Sun Sun Sun
Статистика раздачи
Автор: Nickolas3434 | Размер: 9.12 ГБ | Добавлен: 05 фев 2015
Раздают: 56    Качают: 9
Скачать торрент
Скачать торрент
Описание торрента

СообщениеДобавлено: 05 фев 2015 

Информация о фильме
Название: Лига Справедливости: Трон Атлантиды
Оригинальное название: Justice League: Throne of Atlantis
Год выхода: 2015
Жанр: Фантастика, боевик, приключения
Режиссер: Этан Сполдинг
В ролях: Кристофер Горам, Мэтт Лантер, Сумали Монтано, Шемар Мур, Джерри О’Коннелл, Джейсон О’Мара, Сэм Уитвер, Мелик Бергер, Стивен Блум, Патрик Кавано, Ларри Седар, Бэрри Деннен, Пол Айдинг, Сирена Ирвин, Джей Джонсон, Мэттью Кинг, Джульетт Ландау, Гарри Дж. Ленникс, Джордж Ньюберн, Хари Пэйтон
О фильме:
О противостояние Аквамена и его брата Орма Повелителя Океана, который объявил войну жителям поверхности Земли после смерти короля Атлантиды во время инопланетного вторжения. События «Трона Антлантиды» будут разворачиваться вокруг молодого Артура Карри, который узнает о своем происхождении. Теперь он вынужден объединится с Лигой Справедливости, чтобы остановить Орма. Мы знакомимся с Артуром в очень сложный, поворотный момент его жизни. Его отец умирает, и он остается один, он становится изгоем. Когда армия Атлантиды начинает вторжение на поверхность, Артур еще не знаем о своем происхождении. Однако, как только он узнает о своем наследии, то ему предстоит сделать нелегкий выбор, который в итоге определит его судьбу.
Рейтинг PG-13 - Детям до 13 лет просмотр не желателен
GREEN TEA, ZM-SHOW, Viruse Project
Перевод на русский: Dakota Family Translators
Роли озвучивали:
Кирилл Лавров - ZM-SHOW
Александр Харченко - Viruse Project
Константин Романов, Пётр Слепцов, Макс Коллапс, Владимир Полупанов, Александр Жуков, Франк Цветков, Ольга Гринтиева - GREEN TEA
DuBDraG ProJECT Совместно с Evolution Studio
Роли Озвучивали: Евгений Леонов, Глеб Петров, Сергей Баласанян, Темирлан Карабаев, Болат Болатов, Екатерина Дмитрова
Перевод на русский язык : Dakota Family Translators
Озвучено при поддержке: marveltoys, bazingacomics, Comix Zone, starwarstoy
Синхронизация перевода - Викс
Общее
Уникальный идентификатор : 216343068668046034635190445678688864525 (0xA2C228CFCDE40C4AA0F8B0FD078E090D)
Полное имя : I:Готовые новые релизыJustice.League.Throne.of.Atlantis.2015.x264.BDRemux.1080p-MediaClub.mkv
Формат : Matroska
Версия формата : Version 2
Размер файла : 9,12 Гбайт
Продолжительность : 1 ч. 12 м.
Режим общего битрейта : Переменный
Общий поток : 18,1 Мбит/сек
Название фильма : Justice League Throne of Atlantis (2015) BDRemux 1080p -MediaClub- [Викс]
Дата кодирования : UTC 2015-02-04 09:02:45
Программа кодирования : mkvmerge v5.8.0 ('No Sleep / Pillow') built on Sep 2 2012 15:37:04
Библиотека кодирования : libebml v1.2.3 + libmatroska v1.3.0
Видео
Идентификатор : 1
Формат : AVC
Формат/Информация : Advanced Video Codec
Профиль формата : High@L4.0
Параметр CABAC формата : Да
Параметр ReFrames формата : 2 кадра
Режим смешивания : Container profile=Unknown@0.0
Идентификатор кодека : V_MPEG4/ISO/AVC
Продолжительность : 1 ч. 12 м.
Вид битрейта : Переменный
Битрейт : 14,6 Мбит/сек
Ширина : 1920 пикселей
Высота : 1080 пикселей
Соотношение сторон : 16:9
Режим частоты кадров : Постоянный
Частота кадров : 23,976 кадра/сек
Цветовое пространство : YUV
Субдискретизация насыщенности : 4:2:0
Битовая глубина : 8 бит
Тип развёртки : Прогрессивная
Бит/(Пиксели*Кадры) : 0.293
Размер потока : 7,34 Гбайт (80%)
Язык : English
Default : Нет
Forced : Нет
Аудио #1
Идентификатор : 2
Формат : AC-3
Формат/Информация : Audio Coding 3
Расширение режима : CM (complete main)
Параметр Endianness формата : Big
Идентификатор кодека : A_AC3
Продолжительность : 1 ч. 12 м.
Вид битрейта : Постоянный
Битрейт : 192 Кбит/сек
Каналы : 2 канала
Расположение каналов : Front: L R
Частота : 48,0 КГц
Битовая глубина : 16 бит
Метод сжатия : С потерями
Размер потока : 99,0 Мбайт (1%)
Заголовок : LM (GREEN TEA, ZM-SHOW, Viruse Project)
Язык : Russian
Default : Да
Forced : Нет
Аудио #2
Идентификатор : 3
Формат : AC-3
Формат/Информация : Audio Coding 3
Расширение режима : CM (complete main)
Параметр Endianness формата : Big
Идентификатор кодека : A_AC3
Продолжительность : 1 ч. 12 м.
Вид битрейта : Постоянный
Битрейт : 192 Кбит/сек
Каналы : 2 канала
Расположение каналов : Front: L R
Частота : 48,0 КГц
Битовая глубина : 16 бит
Метод сжатия : С потерями
Размер потока : 99,0 Мбайт (1%)
Заголовок : LM (DuBDraG ProJECT и Evolution Studio)
Язык : Russian
Default : Нет
Forced : Нет
Аудио #3
Идентификатор : 4
Формат : DTS
Формат/Информация : Digital Theater Systems
Режим : 16
Параметр Endianness формата : Big
Идентификатор кодека : A_DTS
Продолжительность : 1 ч. 12 м.
Вид битрейта : Постоянный
Битрейт : 1509 Кбит/сек
Каналы : 6 каналов
Расположение каналов : Front: L C R, Side: L R, LFE
Частота : 48,0 КГц
Битовая глубина : 24 бит
Метод сжатия : С потерями
Размер потока : 778 Мбайт (8%)
Язык : English
Default : Нет
Forced : Нет
Аудио #4
Идентификатор : 5
Формат : AC-3
Формат/Информация : Audio Coding 3
Расширение режима : CM (complete main)
Параметр Endianness формата : Big
Идентификатор кодека : A_AC3
Продолжительность : 1 ч. 12 м.
Вид битрейта : Постоянный
Битрейт : 640 Кбит/сек
Каналы : 6 каналов
Расположение каналов : Front: L C R, Side: L R, LFE
Частота : 48,0 КГц
Битовая глубина : 16 бит
Метод сжатия : С потерями
Размер потока : 330 Мбайт (4%)
Язык : French
Default : Нет
Forced : Нет
Аудио #5
Идентификатор : 6
Формат : AC-3
Формат/Информация : Audio Coding 3
Расширение режима : CM (complete main)
Параметр Endianness формата : Big
Идентификатор кодека : A_AC3
Продолжительность : 1 ч. 12 м.
Вид битрейта : Постоянный
Битрейт : 640 Кбит/сек
Каналы : 6 каналов
Расположение каналов : Front: L C R, Side: L R, LFE
Частота : 48,0 КГц
Битовая глубина : 16 бит
Метод сжатия : С потерями
Размер потока : 330 Мбайт (4%)
Язык : Spanish
Default : Нет
Forced : Нет
Текст #1
Идентификатор : 7
Формат : UTF-8
Идентификатор кодека : S_TEXT/UTF8
Идентификатор кодека/Информация : UTF-8 Plain Text
Язык : Russian
Default : Нет
Forced : Нет
Текст #2
Идентификатор : 8
Формат : UTF-8
Идентификатор кодека : S_TEXT/UTF8
Идентификатор кодека/Информация : UTF-8 Plain Text
Язык : English
Default : Нет
Forced : Нет
Меню
00:00:00.000 : :Chapter 01
00:02:56.593 : :Chapter 02
00:10:36.510 : :Chapter 03
00:21:50.267 : :Chapter 04
00:31:31.347 : :Chapter 05
00:41:24.815 : :Chapter 06
00:51:54.277 : :Chapter 07
01:00:54.150 : :Chapter 08
01:07:19.118 : :Chapter 09
01:12:06.196 : :Chapter 10


Страна: США
Студия: DC Comics, Warner Bros. Animation
Продолжительность: 01:12:07
Перевод: Любительский многоголосый (GREEN TEA, ZM-SHOW, Viruse Project), любительский многоголосый (DuBDraG ProJECT и Evolution Studio)
Файл
Кодек: x264
Качество: BDRemux 1080p
Видео: MPEG-4 AVC, 14.6 Мбит/с, 1920x1080, 23.976 кадр/с
Звук:
Аудио #1: Русский (AC3, 2 ch, 192 Кбит/с) / Любительский многоголосый (GREEN TEA, ZM-SHOW, Viruse Project)
Аудио #2: Русский (AC3, 2 ch, 192 Кбит/с) / Любительский многоголосый (DuBDraG ProJECT и Evolution Studio)
Аудио #3: Английский (DTS, 6 ch, 1509 Кбит/с)
Аудио #4: Французский (AC3, 6 ch, 640 Кбит/с)
Аудио #5: Испанский (AC3, 6 ch, 640 Кбит/с)
Субтитры: Русские, английские
Семпл





Релиз от: Работа с аудио - Викс



   Похожие торренты   Торрент   Размер 
В этой теме нет новых непрочитанных сообщений. Лига Справедливости: Трон Атлантиды / Justice League: Throne of Atlantis (2015) BDRip 1080p от MediaClub | L

177 | 16

3.48 ГБ

В этой теме нет новых непрочитанных сообщений. Лига Справедливости: Трон Атлантиды / Justice League: Throne of Atlantis (2015) BDRip-AVC от MediaClub | L

69 | 2

1.08 ГБ

В этой теме нет новых непрочитанных сообщений. Лига Справедливости: Трон Атлантиды / Justice League: Throne of Atlantis (2015) BDRip 720p от MediaClub | L

216 | 2

1.87 ГБ

В этой теме нет новых непрочитанных сообщений. Лига Справедливости: Трон Атлантиды / Justice League: Throne of Atlantis (2015) BDRip 720p от MediaClub | L

284 | 18

1.96 ГБ

В этой теме нет новых непрочитанных сообщений. Лига Справедливости: Трон Атлантиды / Justice League: Throne of Atlantis (2015) WEB-DLRip | L

277 | 24

1.38 ГБ

В этой теме нет новых непрочитанных сообщений. Лига Справедливости: Трон Атлантиды / Justice League: Throne of Atlantis (2015) HDRip | L

227 | 9

1.37 ГБ

В этой теме нет новых непрочитанных сообщений. Лига Справедливости: Трон Атлантиды / Justice League: Throne of Atlantis (2015) HDRip от ImperiaFilm | L

53 | 5

498.82 МБ




Вы не можете начинать темы
Вы не можете отвечать на сообщения
Вы не можете редактировать свои сообщения
Вы не можете удалять свои сообщения
Вы не можете добавлять вложения

Перейти:  
Для Мосгорсуда, Роскомнадзора и рекламодателей: mosgorsud-torrent[собачка]yandex.ru
 Вход
ppkBB3cker v.2 © 2008-2014 @ PPK
[ Time : 0.012s | 14 Queries | GZIP : Off ]
CGP output time : 0.023s | 5 Queries | GZIP : Off

Торрент трекер RUTOR.IN, Не можете зайти на rutor.org? Какой новый адрес рутор? Какое зеркало рутор? Не работает rutor.org и зеркала? Тогда наш торрент специально для вас. Rutor.in неофициальное зеркало rutor. В случае если у Вас заблокирован rutor или вдруг Вы не можете на него зайти, то Вы без труда сможете скачать бесплатно и без рекламы последние новинки кино, игр, сериалов и прочего у нас, на Rutor.in. Не нужно использовать прокси, чтобы зайти на рутор, достаточно воспользоваться нашим ресурсом. Все новые фильмы, игры, сериалы, книги и музыка за 2013 и 2014 годы через торрент бесплатно. Скачивайте фильмы в хорошем качестве, игры для пк, xbox, playstation без регистрации. У нас вы найдете новые Зарубежные сериалы и Русские сериалы 2013, 2014, 2015 годов. Оставайтесь с нами, качайте любимые фильмы, игры, сериалы, книги и музыку.