img image001 image001 image001 image001 image001 image001 image001 image001 image001 image001 image001 image001 image001 image001 image001

Planets Sun Sun Sun
Статистика раздачи
Автор: Nickolas3434 | Размер: 6.01 ГБ | Добавлен: 05 фев 2015
Раздают: 187    Качают: 6
Скачать торрент
Скачать торрент
Описание торрента

СообщениеДобавлено: 05 фев 2015 


Название: Семейка монстров
Оригинальное название: The Boxtrolls
Год выхода: 2014
Жанр: мультфильм, фэнтези, комедия
Режиссер: Грэхэм Эннэйбл, Энтони Стакки
В ролях: Бен Кингсли, Джаред Харрис, Ник Фрост, Ричард Айоади, Трэйси Морган, Ди Брэдли Бейкер, Стивен Блум, Ника Футтерман, Пэт Фрэли, Фред Татаскьор
О фильме: Ему не повезло родиться в роскошном замке. Вместе с семейкой забавных монстров юноша поселился прямо под мостовой. Изысканные костюмы ему заменила обычная коробка. Зато каждую ночь он мог разгуливать по темным улицам в поисках новых приключений. Но однажды он встретил очаровательную девчушку из высшего общества – и мир вокруг изменился навсегда.

Страна: США
Студия: Laika Entertainment
Продолжительность: 01:36:09
Перевод: Профессиональный (полное дублирование) Blu-ray 3D CEE
Рип от CRiSC!
Формат: Matroska
Видео: 1280x720 at 23.976 fps, x264@L4.1, ~5458 kbps avg
Aудио#1: Russian: 48 kHz, AC3, 3/2 (L,C,R,l,r) + LFE ch, ~448.00 kbps avg |Дубляж, Blu-ray 3D CEE|
Aудио#2: Russian: 48 kHz, DTS, 3/2 (L,C,R,l,r) + LFE ch, ~768.00 kbps avg |Дубляж, Blu-ray 3D CEE|
Aудио#3: Ukrainian: 48 kHz, AC3, 3/2 (L,C,R,l,r) + LFE ch, ~448.00 kbps avg |Дубляж, Blu-ray 3D CEE|
Аудио#4: English: 48 kHz, DTS, 3/2 (L,C,R,l,r) + LFE ch, ~1536.00 kbps avg
Aудио#5: English: 48 kHz, AC3, 2/0 (L,R) ch, ~192.00 kbps avg |Feature Commentary with Directors Graham Annable And Anthony Stacchi|
Субтитры: Russian (Forced, Blu-ray 3D CEE), Russian (Blu-ray 3D CEE), Ukrainian (Forced, Blu-ray 3D CEE), Ukrainian (Blu-ray 3D CEE), English, English (SDH), English (SDH-COLORED)
General
Unique ID : 228660639144191438922283863446113220456 (0xAC066FEC8A0B17A08A9B132C0133F768)
Complete name : The.Boxtrolls.2014.720p.BluRay.DTS.Rus.Ukr.2xEng.mkv
Format : Matroska
Format version : Version 4 / Version 2
File size : 6.01 GiB
Duration : 1h 36mn
Overall bit rate : 8 954 Kbps
Movie name : The Boxtrolls (2014) - Release for HDCLUB
Encoded date : UTC 2015-02-04 09:17:51
Writing application : mkvmerge v7.3.0 ('Nouages') 64bit built on Oct 22 2014 18:53:34
Writing library : libebml v1.3.0 + libmatroska v1.4.1
Attachment : Yes / Yes
Video
ID : 1
Format : AVC
Format/Info : Advanced Video Codec
Format profile : High@L4.1
Format settings, CABAC : Yes
Format settings, ReFrames : 9 frames
Codec ID : V_MPEG4/ISO/AVC
Duration : 1h 36mn
Bit rate : 5 411 Kbps
Width : 1 280 pixels
Height : 720 pixels
Display aspect ratio : 16:9
Frame rate mode : Constant
Frame rate : 23.976 fps
Color space : YUV
Chroma subsampling : 4:2:0
Bit depth : 8 bits
Scan type : Progressive
Bits/(Pixel*Frame) : 0.245
Stream size : 3.63 GiB (60%)
Title : The Boxtrolls (2014) - Release for HDCLUB
Writing library : x264 core 142 r2431+42 c69a006 tMod [8-bit@4:2:0 X86_64]
Encoding settings : cabac=1 / ref=9 / deblock=1:-3:-3 / analyse=0x3:0x133 / me=umh / subme=10 / psy=1 / fade_compensate=0.00 / psy_rd=1.00:0.00 / mixed_ref=1 / me_range=24 / chroma_me=1 / trellis=2 / 8x8dct=1 / cqm=0 / deadzone=21,11 / fast_pskip=1 / chroma_qp_offset=-2 / threads=12 / lookahead_threads=2 / sliced_threads=0 / nr=0 / decimate=1 / interlaced=0 / bluray_compat=0 / constrained_intra=0 / fgo=0 / bframes=9 / b_pyramid=2 / b_adapt=2 / b_bias=0 / direct=3 / weightb=1 / open_gop=0 / weightp=2 / keyint=250 / keyint_min=23 / scenecut=40 / intra_refresh=0 / rc_lookahead=60 / rc=crf / mbtree=0 / crf=16.6000 / qcomp=0.65 / qpmin=0:0:0 / qpmax=69:69:69 / qpstep=4 / vbv_maxrate=62500 / vbv_bufsize=78125 / crf_max=0.0 / nal_hrd=none / filler=0 / ip_ratio=1.30 / pb_ratio=1.20 / aq=4:0.70 / aq-sensitivity=10.00 / aq-factor=1.00:1.00:1.00 / aq2=0 / aq3=0
Language : English
Default : Yes
Forced : No
Matrix coefficients : BT.709
Audio #1
ID : 2
Format : AC-3
Format/Info : Audio Coding 3
Mode extension : CM (complete main)
Format settings, Endianness : Big
Codec ID : A_AC3
Duration : 1h 36mn
Bit rate mode : Constant
Bit rate : 448 Kbps
Channel(s) : 6 channels
Channel positions : Front: L C R, Side: L R, LFE
Sampling rate : 48.0 KHz
Bit depth : 16 bits
Compression mode : Lossy
Stream size : 308 MiB (5%)
Title : DUB, Blu-ray 3D CEE
Language : Russian
Default : Yes
Forced : No
Audio #2
ID : 3
Format : DTS
Format/Info : Digital Theater Systems
Mode : 16
Format settings, Endianness : Big
Codec ID : A_DTS
Duration : 1h 36mn
Bit rate mode : Constant
Bit rate : 768 Kbps
Channel(s) : 6 channels
Channel positions : Front: L C R, Side: L R, LFE
Sampling rate : 48.0 KHz
Bit depth : 24 bits
Compression mode : Lossy
Stream size : 528 MiB (9%)
Title : DTS 5.1 @ 768 kbps - DUB, Blu-ray 3D CEE
Language : Russian
Default : No
Forced : No
Audio #3
ID : 4
Format : AC-3
Format/Info : Audio Coding 3
Mode extension : CM (complete main)
Format settings, Endianness : Big
Codec ID : A_AC3
Duration : 1h 36mn
Bit rate mode : Constant
Bit rate : 448 Kbps
Channel(s) : 6 channels
Channel positions : Front: L C R, Side: L R, LFE
Sampling rate : 48.0 KHz
Bit depth : 16 bits
Compression mode : Lossy
Stream size : 308 MiB (5%)
Title : AC3 5.1 @ 448 kbps - DUB, Blu-ray 3D CEE
Language : Ukrainian
Default : No
Forced : No
Audio #4
ID : 5
Format : DTS
Format/Info : Digital Theater Systems
Mode : 16
Format settings, Endianness : Big
Codec ID : A_DTS
Duration : 1h 36mn
Bit rate mode : Constant
Bit rate : 1 509 Kbps
Channel(s) : 6 channels
Channel positions : Front: L C R, Side: L R, LFE
Sampling rate : 48.0 KHz
Bit depth : 24 bits
Compression mode : Lossy
Delay relative to video : 11ms
Stream size : 1.01 GiB (17%)
Title : DTS 5.1 @ 1536 kbps
Language : English
Default : No
Forced : No
Audio #5
ID : 6
Format : AC-3
Format/Info : Audio Coding 3
Format profile : Dolby Digital
Mode extension : CM (complete main)
Format settings, Endianness : Big
Codec ID : A_AC3
Duration : 1h 36mn
Bit rate mode : Constant
Bit rate : 192 Kbps
Channel(s) : 2 channels
Channel positions : Front: L R
Sampling rate : 48.0 KHz
Bit depth : 16 bits
Compression mode : Lossy
Stream size : 132 MiB (2%)
Title : AC3 2.0 @ 192 kbps - Commentary with Directors Graham Annable and Anthony Stacchi
Language : English
Default : No
Forced : No
Text #1
ID : 7
Format : UTF-8
Codec ID : S_TEXT/UTF8
Codec ID/Info : UTF-8 Plain Text
Title : Forced
Language : Russian
Default : Yes
Forced : No
Text #2
ID : 8
Format : UTF-8
Codec ID : S_TEXT/UTF8
Codec ID/Info : UTF-8 Plain Text
Language : Russian
Default : No
Forced : No
Text #3
ID : 9
Format : UTF-8
Codec ID : S_TEXT/UTF8
Codec ID/Info : UTF-8 Plain Text
Title : Forced
Language : Ukrainian
Default : No
Forced : No
Text #4
ID : 10
Format : UTF-8
Codec ID : S_TEXT/UTF8
Codec ID/Info : UTF-8 Plain Text
Language : Ukrainian
Default : No
Forced : No
Text #5
ID : 11
Format : UTF-8
Codec ID : S_TEXT/UTF8
Codec ID/Info : UTF-8 Plain Text
Language : English
Default : No
Forced : No
Text #6
ID : 12
Format : UTF-8
Codec ID : S_TEXT/UTF8
Codec ID/Info : UTF-8 Plain Text
Title : SDH
Language : English
Default : No
Forced : No
Text #7
ID : 13
Format : UTF-8
Codec ID : S_TEXT/UTF8
Codec ID/Info : UTF-8 Plain Text
Title : SDH-COLORED
Language : English
Default : No
Forced : No
Menu
00:00:00.000 : en:Chapter 1
00:05:52.143 : en:Chapter 2
00:11:53.295 : en:Chapter 3
00:15:21.337 : en:Chapter 4
00:20:22.804 : en:Chapter 5
00:27:08.501 : en:Chapter 6
00:32:25.944 : en:Chapter 7
00:36:26.517 : en:Chapter 8
00:41:45.920 : en:Chapter 9
00:45:45.284 : en:Chapter 10
00:51:57.280 : en:Chapter 11
00:56:00.106 : en:Chapter 12
01:02:03.886 : en:Chapter 13
01:07:26.208 : en:Chapter 14
01:11:27.866 : en:Chapter 15
01:16:27.874 : en:Chapter 16
01:22:05.670 : en:Chapter 17
01:25:30.375 : en:Chapter 18
01:27:33.248 : en:Chapter 19
01:30:00.686 : en:Chapter 20



   Похожие торренты   Торрент   Размер 
В этой теме нет новых непрочитанных сообщений. Семейка монстров / The Boxtrolls (2014) BDRip 720p от Leonardo and Scarabey | Лицензия

141 | 20

3.73 ГБ

В этой теме нет новых непрочитанных сообщений. Семейка монстров / The Boxtrolls (2014) BDRip | Лицензия

442 | 19

1.38 ГБ

В этой теме нет новых непрочитанных сообщений. Семейка монстров / The Boxtrolls (2014) BDRip от HQCLUB | Лицензия

154 | 15

1.45 ГБ

В этой теме нет новых непрочитанных сообщений. Семейка монстров / The Boxtrolls (2014) BDRip 1080p | Лицензия

128 | 4

11.67 ГБ

В этой теме нет новых непрочитанных сообщений. Семейка монстров / The Boxtrolls (2014) BDRip 720p

201 | 12

2.91 ГБ

В этой теме нет новых непрочитанных сообщений. Семейка монстров / The Boxtrolls (2014) BDRip 720p | KinoGadget | iPad

226 | 9

1.39 ГБ

В этой теме нет новых непрочитанных сообщений. Семейка монстров / The Boxtrolls (2014) BDRip 720p от KinoRay | iTunes

716 | 79

4.72 ГБ




Вы не можете начинать темы
Вы не можете отвечать на сообщения
Вы не можете редактировать свои сообщения
Вы не можете удалять свои сообщения
Вы не можете добавлять вложения

Перейти:  
Для Мосгорсуда, Роскомнадзора и рекламодателей: mosgorsud-torrent[собачка]yandex.ru
 Вход
ppkBB3cker v.2 © 2008-2014 @ PPK
[ Time : 0.052s | 14 Queries | GZIP : Off ]

Торрент трекер RUTOR.IN, Не можете зайти на rutor.org? Какой новый адрес рутор? Какое зеркало рутор? Не работает rutor.org и зеркала? Тогда наш торрент специально для вас. Rutor.in неофициальное зеркало rutor. В случае если у Вас заблокирован rutor или вдруг Вы не можете на него зайти, то Вы без труда сможете скачать бесплатно и без рекламы последние новинки кино, игр, сериалов и прочего у нас, на Rutor.in. Не нужно использовать прокси, чтобы зайти на рутор, достаточно воспользоваться нашим ресурсом. Все новые фильмы, игры, сериалы, книги и музыка за 2013 и 2014 годы через торрент бесплатно. Скачивайте фильмы в хорошем качестве, игры для пк, xbox, playstation без регистрации. У нас вы найдете новые Зарубежные сериалы и Русские сериалы 2013, 2014, 2015 годов. Оставайтесь с нами, качайте любимые фильмы, игры, сериалы, книги и музыку.