img image001 image001 image001 image001 image001 image001 image001 image001 image001 image001 image001 image001 image001 image001 image001

Planets Sun Sun Sun
Статистика раздачи
Автор: Nickolas3434 | Размер: 730.3 МБ | Добавлен: 05 фев 2015
Раздают: 138    Качают: 9
Скачать торрент
Скачать торрент
Описание торрента

СообщениеДобавлено: 05 фев 2015 


Информация о фильме
Название : Космический пират Харлок
Оригинальное название : Space Pirate Captain Harlock
Год выхода : 2013
Жанр : мультфильм, фантастика, боевик, приключения
Режиссер : Синдзи Арамаки
Роли озвучивали : Сюн Огури, Аои Ю, Джессика Бун, Аяно Фукуда, Арата Фурута, Адам Гиббс, Киёси Кобаяси, Дэвид Матранга, Харума Миура, Морикава Тосиюки
Роли дублировали : Александр Гаврилин, Екатерина Семенова, Даниил Эльдаров, Евгения Ваган

Описание : Далекое будущее. Преступная корпорация Гайя стала злейшим врагом Земли, отобрав у людей все: свободу, дом, будущее… Казалось, что надежды на спасение нет… Но, появился Он — космический пират Харлок, капитан призрачного корабля Аркадия. Беглец, готовый сражаться за Землю. Кто Он, герой или преступник?..
Страна : Япония, США, Франция
Производство : Toei Animation Company
Продолжительность : 01:55:06
Перевод : Профессиональный (дублированый) [R5 + вставки Ю. Живова]
Автор рипа и релиза :
Файл
Формат видео : AVI
Качество : BDRip (Исходник - BDRemux [SPACE_PIRATE_CAPTAIN_HARLOCK_2013_HDCLUB]
Видео : XVID, 720x300 (2.40:1), 23.976 fps, 750 Kbps
Аудио : AC3, 128 Кбит/с, 48.0 Hz, 2 ch
Субтитры : Русские [Форсированные] (внешним файлом)




General
Complete name : E:/Torrent_2/Space Pirate Captain Harlock [2013, XviD BDRip, RUS+SUB [Fors]] [Stranik 2.0]/Space Pirate Captain Harlock [2013, XviD BDRip, RUS+SUB [Fors]] [Stranik 2.0].avi
Format : AVI
Format/Info : Audio Video Interleave
File size : 730 MiB
Duration : 1h 55mn
Overall bit rate : 887 Kbps
Writing application : VirtualDubMod 1.5.10.3 (build 2550/release)
Writing library : VirtualDubMod build 2550/release
Video #0
ID : 0
Format : MPEG-4 Visual
Format profile : Advanced Simple@L5
Format settings, BVOP : 2
Format settings, QPel : No
Format settings, GMC : No warppoints
Format settings, Matrix : Default (H.263)
Codec ID : XVID
Codec ID/Hint : XviD
Duration : 1h 55mn
Bit rate : 750 Kbps
Width : 720 pixels
Height : 300 pixels
Display aspect ratio : 2.40:1
Frame rate : 23.976 fps
Color space : YUV
Chroma subsampling : 4:2:0
Bit depth : 8 bits
Scan type : Progressive
Compression mode : Lossy
Bits/(Pixel*Frame) : 0.145
Stream size : 617 MiB (85%)
Writing library : XviD 1.2.1 (UTC 2008-12-04)
Audio #1
ID : 1
Format : AC-3
Format/Info : Audio Coding 3
Mode extension : CM (complete main)
Format settings, Endianness : Big
Codec ID : 2000
Duration : 1h 55mn
Bit rate mode : Constant
Bit rate : 128 Kbps
Channel(s) : 2 channels
Channel positions : Front: L R
Sampling rate : 48.0 KHz
Bit depth : 16 bits
Compression mode : Lossy
Stream size : 105 MiB (14%)
Alignment : Split accross interleaves
Interleave, duration : 42 ms (1.00 video frame)
Interleave, preload duration : 500 ms

Моя максимальная скорость отдачи 100КБ/c





   Похожие торренты   Торрент   Размер 
В этой теме нет новых непрочитанных сообщений. Космический пират Харлок / Space Pirate Captain Harlock (2013) BDRip-1080p от Stranik 2.0 | D | Лицензия

153 | 20

10.38 ГБ

В этой теме нет новых непрочитанных сообщений. Космический пират Харлок / Space Pirate Captain Harlock (2013) BDRip 720p | Лицензия

1051 | 73

3.12 ГБ

В этой теме нет новых непрочитанных сообщений. Космический пират Харлок / Space Pirate Captain Harlock (2013) BDRip-AVC | A,L

207 | 16

4.38 ГБ

В этой теме нет новых непрочитанных сообщений. Космический пират Харлок / Space Pirate Captain Harlock (2013) BDRip 1080p от Ash61 | 3D-Video | halfOU | D, A | Лицензия

383 | 52

5.88 ГБ

В этой теме нет новых непрочитанных сообщений. Космический пират Харлок / Space Pirate Captain Harlock / キャプテンハーロック ロック (2013) BDRip-AVC | L

1076 | 138

2.22 ГБ

В этой теме нет новых непрочитанных сообщений. Космический пират Харлок / Space Pirate Captain Harlock (2013) BDRip 720p

2375 | 304

4.39 ГБ

В этой теме нет новых непрочитанных сообщений. Космический пират Харлок / Space Pirate Captain Harlock (2013) BDRip 1080p | 3D-Video | L

410 | 262

8.77 ГБ




Вы не можете начинать темы
Вы не можете отвечать на сообщения
Вы не можете редактировать свои сообщения
Вы не можете удалять свои сообщения
Вы не можете добавлять вложения

Перейти:  
Для Мосгорсуда, Роскомнадзора и рекламодателей: mosgorsud-torrent[собачка]yandex.ru
 Вход
ppkBB3cker v.2 © 2008-2014 @ PPK
[ Time : 0.544s | 15 Queries | GZIP : On ]

Торрент трекер RUTOR.IN, Не можете зайти на rutor.org? Какой новый адрес рутор? Какое зеркало рутор? Не работает rutor.org и зеркала? Тогда наш торрент специально для вас. Rutor.in неофициальное зеркало rutor. В случае если у Вас заблокирован rutor или вдруг Вы не можете на него зайти, то Вы без труда сможете скачать бесплатно и без рекламы последние новинки кино, игр, сериалов и прочего у нас, на Rutor.in. Не нужно использовать прокси, чтобы зайти на рутор, достаточно воспользоваться нашим ресурсом. Все новые фильмы, игры, сериалы, книги и музыка за 2013 и 2014 годы через торрент бесплатно. Скачивайте фильмы в хорошем качестве, игры для пк, xbox, playstation без регистрации. У нас вы найдете новые Зарубежные сериалы и Русские сериалы 2013, 2014, 2015 годов. Оставайтесь с нами, качайте любимые фильмы, игры, сериалы, книги и музыку.