img image001 image001 image001 image001 image001 image001 image001 image001 image001 image001 image001 image001 image001 image001 image001

Planets Sun Sun Sun
Статистика раздачи
Автор: Nickolas3434 | Размер: 747.12 МБ | Добавлен: 06 фев 2015
Раздают: 173    Качают: 12
Скачать торрент
Скачать торрент
Описание торрента

СообщениеДобавлено: 06 фев 2015 

Информация о фильме
Название: Приключения Флика / Жизнь жуков
Оригинальное название: A Bug's Life
Год выхода: 1998
Жанр: мультфильм, комедия, приключения, семейный
Режиссер: Джон Лассетер, Эндрю Стэнтон
В ролях: Дэйв Фоли (Flik), Кевин Спейси (Hopper), Джулия Луис-Дрейфус (Atta), Хайден Панеттьери (Dot), Филлис Даллер (Queen), Ричард Кайнд (Molt), Дэвид Хайд Пирс (Slim), Джо Рэнфт (Heimlich), Денис Лири (Francis), Джонатан Харрис (Manny), Мэдлин Кан (Gypsy Moth), Бонни Хант (Rosie), Джон Ратценбергер (P.T. Flea)
О фильме:
Действия картины происходят на острове, в колонии муравьев. Среди них особо выделяется изобретатель Флик. Муравьи занимались тем, что собирали дань в виде еды для кузнечиков.
Однажды Флик случайно сбросил в воду всю собранную в виде дани еду. Кузнечики в результате чего увеличили дань. Флик решил противостоять этому. Так началась освободительная борьба муравьев за независимость.
Официальный сайт
Страна: США
Студия: Walt Disney Pictures, Pixar Animation Studios, Buena Vista Pictures
Продолжительность: 01:34:53
Перевод: Профессиональный (полное дублирование)
Файл
Кодек: XviD / MP3
Качество: HDRip
Видео: 672x288, 23.976 fps, XviD MPEG-4 ~963 kbps avg, 0.21 bit/pixel
Звук: 48 kHz, MPEG Layer 3, 2 ch, ~128.00 kbps avg
General
Complete name : /A.Bug's.Life.1998.Rus.HDRip.XviD.avi
Format : AVI
Format/Info : Audio Video Interleave
File size : 747 MiB
Duration : 1h 34mn
Overall bit rate : 1 101 Kbps
Writing application : VirtualDubMod 1.5.10.2 (build 2540/release)
Writing library : VirtualDubMod build 2540/release
Video
ID : 0
Format : MPEG-4 Visual
Format profile : Advanced Simple@L5
Format settings, BVOP : 2
Format settings, QPel : No
Format settings, GMC : No warppoints
Format settings, Matrix : Default (H.263)
Muxing mode : Packed bitstream
Codec ID : XVID
Codec ID/Hint : XviD
Duration : 1h 34mn
Bit rate : 963 Kbps
Width : 672 pixels
Height : 288 pixels
Display aspect ratio : 2.35:1
Frame rate : 23.976 fps
Color space : YUV
Chroma subsampling : 4:2:0
Bit depth : 8 bits
Scan type : Progressive
Compression mode : Lossy
Bits/(Pixel*Frame) : 0.208
Stream size : 654 MiB (88%)
Writing library : XviD 1.2.0.dev47 (UTC 2006-11-01)
Audio
ID : 1
Format : MPEG Audio
Format version : Version 1
Format profile : Layer 3
Codec ID : 55
Codec ID/Hint : MP3
Duration : 1h 34mn
Bit rate mode : Constant
Bit rate : 128 Kbps
Channel(s) : 2 channels
Sampling rate : 48.0 KHz
Compression mode : Lossy
Stream size : 86.9 MiB (12%)
Alignment : Aligned on interleaves
Interleave, duration : 42 ms (1.00 video frame)
Interleave, preload duration : 504 ms
Writing library : LAME3.98r
Encoding settings : -m s -V 4 -q 2 -lowpass 17 -b 128



   Похожие торренты   Торрент   Размер 
В этой теме нет новых непрочитанных сообщений. Жизнь жуков / Приключения Флика / A Bug's Life (1998) BDRip от ExKinoRay

10 | 2

1.45 ГБ

В этой теме нет новых непрочитанных сообщений. Приключения Флика / Жизнь жуков / A Bug's Life (1998) BDRip от HQCLUB

6 | 4

2.9 ГБ

В этой теме нет новых непрочитанных сообщений. A Bug's Life / Приключения Флика / Жизнь жуков (1998) BDRip 720p от HDClub | D, 2 x P, P2, A

49 | 9

4.38 ГБ

В этой теме нет новых непрочитанных сообщений. Приключения Флика / Жизнь жуков / A Bug's Life (1998) BDRip *RERip* от HELLYWOOD

378 | 12

1.45 ГБ

В этой теме нет новых непрочитанных сообщений. Жизнь жуков / Приключения Флика / A Bug's Life (1998) BDRip (1080p) от Filmoff Club

45 | 5

10.24 ГБ

В этой теме нет новых непрочитанных сообщений. Приключения Флика / Жизнь жуков / A Bug's Life (1998) BDRip 720p от Leonardo and Scarabey

211 | 34

2.79 ГБ

В этой теме нет новых непрочитанных сообщений. Приключения Флика / A Bug's Life (1998) BDRip-AVC от DHT-Movies

1 | 1

2.18 ГБ




Вы не можете начинать темы
Вы не можете отвечать на сообщения
Вы не можете редактировать свои сообщения
Вы не можете удалять свои сообщения
Вы не можете добавлять вложения

Перейти:  
Для Мосгорсуда, Роскомнадзора и рекламодателей: mosgorsud-torrent[собачка]yandex.ru
 Вход
ppkBB3cker v.2 © 2008-2014 @ PPK
[ Time : 0.089s | 18 Queries | GZIP : Off ]

Торрент трекер RUTOR.IN, Не можете зайти на rutor.org? Какой новый адрес рутор? Какое зеркало рутор? Не работает rutor.org и зеркала? Тогда наш торрент специально для вас. Rutor.in неофициальное зеркало rutor. В случае если у Вас заблокирован rutor или вдруг Вы не можете на него зайти, то Вы без труда сможете скачать бесплатно и без рекламы последние новинки кино, игр, сериалов и прочего у нас, на Rutor.in. Не нужно использовать прокси, чтобы зайти на рутор, достаточно воспользоваться нашим ресурсом. Все новые фильмы, игры, сериалы, книги и музыка за 2013 и 2014 годы через торрент бесплатно. Скачивайте фильмы в хорошем качестве, игры для пк, xbox, playstation без регистрации. У нас вы найдете новые Зарубежные сериалы и Русские сериалы 2013, 2014, 2015 годов. Оставайтесь с нами, качайте любимые фильмы, игры, сериалы, книги и музыку.