img image001 image001 image001 image001 image001 image001 image001 image001 image001 image001 image001 image001 image001 image001 image001

Planets Sun Sun Sun
Статистика раздачи
Автор: Nickolas3434 | Размер: 702.4 МБ | Добавлен: 06 фев 2015
Раздают: 325    Качают: 5
Скачать торрент
Скачать торрент
Описание торрента

СообщениеДобавлено: 06 фев 2015 


Информация о фильме
Название : Город героев
Оригинальное название : Big Hero 6
Год выхода : 2014
Жанр : мультфильм, боевик, комедия, семейный
Режиссер : Дон Холл, Крис Уильямс
Роли озвучивали : Дженезис Родригез, Джейми Чунг, Алан Тьюдик, Дэймон Уайанс мл., ТиДжей Миллер, Джеймс Кромуэлл, Майя Рудольф, Райан Поттер, Дэниэл Хенни, Скотт Эдсит
Роли дублировали : Даниил Рагин, Максим Сергеев, Игорь Сергеев, Валерий Смекалов, Аделина Червякова

Описание : Юный Хиро Хамада — прирожденный изобретатель и гений конструирования роботов. Вместе со старшим братом Тадаши они воплощают в жизнь самые передовые идеи в Техническом университете города будущего Сан-Франсокио. После серии загадочных событий друзья оказываются в центре коварного заговора. Отчаявшись, Хиро решает использовать веселого и добродушного экспериментального робота Бэймакса, перепрограммировав его в неуязвимую боевую машину.
#77
Премьера (мир): 23 октября 2014
премьера (РФ): 25 октября 2014
релиз на DVD: 3 марта 2015
релиз на Blu-Ray: 3 марта 2015
Страна : США
Производство : Walt Disney Animation Studios, Walt Disney Pictures
Продолжительность : 01:41:51
Перевод : Профессиональный (полное дублирование) [чистый звук] Официальный
Файл
Формат видео : AVI
Качество : WEB-DLRip
Видео : XVID, 720x304 (2.35:1), 23.976 fps, 827 Kbps
Аудио : Русский, AC3, 128 Кбит/с, 48.0 Hz, 2 ch
Субтитры : Нет




General
Complete name : E:/Torrent_2/Big.Hero.6.2014.WEB-DLRip.700MB.avi
Format : AVI
Format/Info : Audio Video Interleave
File size : 702 MiB
Duration : 1h 41mn
Overall bit rate : 964 Kbps
Writing application : VirtualDubMod 1.5.10.3 (build 2550/release)
Writing library : VirtualDubMod build 2550/release
Video #0
ID : 0
Format : MPEG-4 Visual
Format profile : Advanced Simple@L5
Format settings, BVOP : 2
Format settings, QPel : No
Format settings, GMC : No warppoints
Format settings, Matrix : Default (H.263)
Codec ID : XVID
Codec ID/Hint : XviD
Duration : 1h 41mn
Bit rate : 827 Kbps
Width : 720 pixels
Height : 304 pixels
Display aspect ratio : 2.35:1
Frame rate : 23.976 fps
Color space : YUV
Chroma subsampling : 4:2:0
Bit depth : 8 bits
Scan type : Progressive
Compression mode : Lossy
Bits/(Pixel*Frame) : 0.158
Stream size : 602 MiB (86%)
Writing library : XviD 1.2.1 (UTC 2008-12-04)
Audio #1
ID : 1
Format : AC-3
Format/Info : Audio Coding 3
Mode extension : CM (complete main)
Format settings, Endianness : Big
Codec ID : 2000
Duration : 1h 41mn
Bit rate mode : Constant
Bit rate : 128 Kbps
Channel(s) : 2 channels
Channel positions : Front: L R
Sampling rate : 48.0 KHz
Bit depth : 16 bits
Compression mode : Lossy
Stream size : 93.3 MiB (13%)
Alignment : Split accross interleaves
Interleave, duration : 42 ms (1.00 video frame)
Interleave, preload duration : 500 ms

Моя максимальная скорость отдачи 100КБ/c





   Похожие торренты   Торрент   Размер 
В этой теме нет новых непрочитанных сообщений. Город героев / Big Hero 6 (2014) WEB-DLRip | Чистый звук

651 | 8

1.37 ГБ

В этой теме нет новых непрочитанных сообщений. Город героев / Big Hero 6 (2014) DVDScr | Чистый звук

350 | 10

699.51 МБ

В этой теме нет новых непрочитанных сообщений. Город героев / Big Hero 6 (2014) DVDScrRemux | Чистый звук

1143 | 7

3.97 ГБ

В этой теме нет новых непрочитанных сообщений. Город героев / Big Hero 6 (2014) DVDScr | Чистый звук

21943 | 1820

1.37 ГБ

В этой теме нет новых непрочитанных сообщений. Город героев / Big Hero 6 (2014) DVDScr-AVC | Чистый звук

516 | 11

1.65 ГБ

В этой теме нет новых непрочитанных сообщений. Город героев / Big Hero 6 (2014) HDRip AVC | Чистый звук

105 | 3

1.54 ГБ

В этой теме нет новых непрочитанных сообщений. Город героев / Big Hero 6 (2014) WEB-DL 720p | Чистый звук

714 | 5

3.18 ГБ




Вы не можете начинать темы
Вы не можете отвечать на сообщения
Вы не можете редактировать свои сообщения
Вы не можете удалять свои сообщения
Вы не можете добавлять вложения

Перейти:  
Для Мосгорсуда, Роскомнадзора и рекламодателей: mosgorsud-torrent[собачка]yandex.ru
 Вход
ppkBB3cker v.2 © 2008-2014 @ PPK
[ Time : 0.020s | 18 Queries | GZIP : Off ]

Торрент трекер RUTOR.IN, Не можете зайти на rutor.org? Какой новый адрес рутор? Какое зеркало рутор? Не работает rutor.org и зеркала? Тогда наш торрент специально для вас. Rutor.in неофициальное зеркало rutor. В случае если у Вас заблокирован rutor или вдруг Вы не можете на него зайти, то Вы без труда сможете скачать бесплатно и без рекламы последние новинки кино, игр, сериалов и прочего у нас, на Rutor.in. Не нужно использовать прокси, чтобы зайти на рутор, достаточно воспользоваться нашим ресурсом. Все новые фильмы, игры, сериалы, книги и музыка за 2013 и 2014 годы через торрент бесплатно. Скачивайте фильмы в хорошем качестве, игры для пк, xbox, playstation без регистрации. У нас вы найдете новые Зарубежные сериалы и Русские сериалы 2013, 2014, 2015 годов. Оставайтесь с нами, качайте любимые фильмы, игры, сериалы, книги и музыку.