img image001 image001 image001 image001 image001 image001 image001 image001 image001 image001 image001 image001 image001 image001 image001

Planets Sun Sun Sun
Статистика раздачи
Автор: Nickolas3434 | Размер: 1.49 ГБ | Добавлен: 08 фев 2015
Раздают: 217    Качают: 5
Скачать торрент
Скачать торрент
Описание торрента

СообщениеДобавлено: 08 фев 2015 

Информация о фильме
Название: Астерикс: Земля Богов
Оригинальное название: Astérix: Le domaine des dieux
Год выпуска: 2014
Жанр: Мультфильм, приключения, фэнтези, комедия
Выпущено: Франция
Режиссер: Александр Астье, Луис Клиши
В ролях: Роже Карель, Гийом Бриа, Лоран Дойч, Лоран Лафитт, Александр Астье, Ален Шаба, Эли Семун, Жеральдин Накаш, Артюс де Пенгерн, Лионель Астье
О фильме: Астерикс и его лучший друг Обеликс продолжают свою многолетнюю борьбу с Цезарем, который хочет наконец-то расправиться с неукротимыми галлами. Вокруг деревни Астерикса Цезарь приказывает построить новый Рим — Землю Богов. В галльской деревне хаос и смятение. Но Астерикс и Обеликс не сдаются!

Файл
Качество: WEB-DLRip (AVC)
Видео: MPEG-4 AVC, 2222 Кбит/с, 1024x576, 25 кадр/с
Аудио: Русский (AC3, 6 ch, 384 Кбит/с)
Размер: 1.49 ГБ
Продолжительность: 01:21:58
Перевод: Дублированный
Озвучивание - Дублированное (iTunes Russia)
Сохранены оригинальные чаптеры как на исходном WEB-DL.
Общее
Уникальный идентификатор : 251952089370298808960376485104416334261 (0xBD8C3514B00AF10B875D426489F621B5)
Полное имя : D:ЗагрузкиAstericks.2014.x264.WEB-DLRip.(AVC).ExKinoRay.mkv
Формат : Matroska
Версия формата : Version 2
Размер файла : 1,49 Гбайт
Продолжительность : 1 ч. 21 м.
Общий поток : 2608 Кбит/сек
Название фильма : Астерикс: Земля Богов.2014.Rip by: ollan
Дата кодирования : UTC 2015-01-28 20:21:01
Программа кодирования : mkvmerge v5.6.0 ('Kenya Kane') built on May 27 2012 16:44:04
Библиотека кодирования : libebml v1.2.3 + libmatroska v1.3.0
Видео
Идентификатор : 1
Формат : AVC
Формат/Информация : Advanced Video Codec
Профиль формата : High@L4.1
Параметр CABAC формата : Да
Параметр ReFrames формата : 9 кадров
Идентификатор кодека : V_MPEG4/ISO/AVC
Продолжительность : 1 ч. 21 м.
Битрейт : 2222 Кбит/сек
Ширина : 1024 пикселя
Высота : 576 пикселей
Соотношение сторон : 16:9
Режим частоты кадров : Постоянный
Частота кадров : 25,000 кадров/сек
Цветовое пространство : YUV
Субдискретизация насыщенности : 4:2:0
Битовая глубина : 8 бит
Тип развёртки : Прогрессивная
Бит/(Пиксели*Кадры) : 0.151
Размер потока : 1,24 Гбайт (83%)
Библиотека кодирования : x264 core 125 r2200 999b753
Настройки программы : cabac=1 / ref=9 / deblock=1:-3:-3 / analyse=0x3:0x133 / me=umh / subme=11 / psy=1 / psy_rd=1.00:0.10 / mixed_ref=1 / me_range=32 / chroma_me=1 / trellis=2 / 8x8dct=1 / cqm=0 / deadzone=21,11 / fast_pskip=0 / chroma_qp_offset=-3 / threads=12 / lookahead_threads=2 / sliced_threads=0 / nr=0 / decimate=0 / interlaced=0 / bluray_compat=0 / constrained_intra=0 / bframes=9 / b_pyramid=2 / b_adapt=2 / b_bias=0 / direct=3 / weightb=1 / open_gop=0 / weightp=2 / keyint=250 / keyint_min=25 / scenecut=40 / intra_refresh=0 / rc_lookahead=40 / rc=2pass / mbtree=1 / bitrate=2222 / ratetol=1.0 / qcomp=0.60 / qpmin=0 / qpmax=69 / qpstep=4 / cplxblur=20.0 / qblur=0.5 / ip_ratio=1.40 / aq=1:1.00
Язык : French
Default : Да
Forced : Нет
Аудио
Идентификатор : 2
Формат : AC-3
Формат/Информация : Audio Coding 3
Расширение режима : CM (complete main)
Параметр Endianness формата : Big
Идентификатор кодека : A_AC3
Продолжительность : 1 ч. 21 м.
Вид битрейта : Постоянный
Битрейт : 384 Кбит/сек
Каналы : 6 каналов
Расположение каналов : Front: L C R, Side: L R, LFE
Частота : 48,0 КГц
Битовая глубина : 16 бит
Метод сжатия : С потерями
Размер потока : 225 Мбайт (15%)
Заголовок : Дублированный (iTunes Russia)
Язык : Russian
Default : Да
Forced : Нет
Меню
00:00:00.000 : fr:Chapter 01
00:04:44.000 : fr:Chapter 02
00:09:56.000 : fr:Chapter 03
00:15:48.000 : fr:Chapter 04
00:21:48.000 : fr:Chapter 05
00:27:15.000 : fr:Chapter 06
00:33:19.000 : fr:Chapter 07
00:39:06.000 : fr:Chapter 08
00:45:10.000 : fr:Chapter 09
00:50:31.000 : fr:Chapter 10
00:56:05.000 : fr:Chapter 11
01:01:37.000 : fr:Chapter 12
01:07:16.000 : fr:Chapter 13
01:12:28.000 : fr:Chapter 14
01:16:06.000 : fr:Chapter 15





Релиз от: Rip by:



   Похожие торренты   Торрент   Размер 
В этой теме нет новых непрочитанных сообщений. Астерикс: Земля Богов / Astérix: Le domaine des dieux (2014) WEB-DLRip-AVC от ExKinoRay | iTunes Russia

503 | 7

1.49 ГБ

В этой теме нет новых непрочитанных сообщений. Астерикс: Земля Богов / Asterix: Le domaine des dieux (2014) WEB-DLRip | iTunes

1555 | 30

1.37 ГБ

В этой теме нет новых непрочитанных сообщений. Астерикс: Земля Богов / Asterix: Le domaine des dieux (2014) WEB-DLRip от Generalfilm | КПК | iTunes

148 | 3

278.02 МБ

В этой теме нет новых непрочитанных сообщений. Астерикс: Земля Богов / Asterix: Le domaine des dieux (2014) WEB-DL 720p | iTunes

1141 | 17

2.54 ГБ

В этой теме нет новых непрочитанных сообщений. Астерикс: Земля Богов / Astérix: Le domaine des dieux (2014) BDRip 1080p от ExKinoRay | Лицензия

336 | 13

5.27 ГБ

В этой теме нет новых непрочитанных сообщений. OST - Астерикс: Земля Богов / Asterix: Le Domaine Des Dieux (2014) MP3

24 | 3

113.11 МБ

В этой теме нет новых непрочитанных сообщений. Астерикс: Земля Богов / Astérix: Le domaine des dieux / Asterix: The Mansions of the Gods (2014) BDRip 1080p от Ash61 | 3D-Video | halfOU

148 | 10

4.12 ГБ




Вы не можете начинать темы
Вы не можете отвечать на сообщения
Вы не можете редактировать свои сообщения
Вы не можете удалять свои сообщения
Вы не можете добавлять вложения

Перейти:  
Для Мосгорсуда, Роскомнадзора и рекламодателей: mosgorsud-torrent[собачка]yandex.ru
 Вход
ppkBB3cker v.2 © 2008-2014 @ PPK
[ Time : 1.232s | 15 Queries | GZIP : On ]

Торрент трекер RUTOR.IN, Не можете зайти на rutor.org? Какой новый адрес рутор? Какое зеркало рутор? Не работает rutor.org и зеркала? Тогда наш торрент специально для вас. Rutor.in неофициальное зеркало rutor. В случае если у Вас заблокирован rutor или вдруг Вы не можете на него зайти, то Вы без труда сможете скачать бесплатно и без рекламы последние новинки кино, игр, сериалов и прочего у нас, на Rutor.in. Не нужно использовать прокси, чтобы зайти на рутор, достаточно воспользоваться нашим ресурсом. Все новые фильмы, игры, сериалы, книги и музыка за 2013 и 2014 годы через торрент бесплатно. Скачивайте фильмы в хорошем качестве, игры для пк, xbox, playstation без регистрации. У нас вы найдете новые Зарубежные сериалы и Русские сериалы 2013, 2014, 2015 годов. Оставайтесь с нами, качайте любимые фильмы, игры, сериалы, книги и музыку.