img image001 image001 image001 image001 image001 image001 image001 image001 image001 image001 image001 image001 image001 image001 image001

Planets Sun Sun Sun
Статистика раздачи
Автор: Nickolas3434 | Размер: 5.27 ГБ | Добавлен: 08 фев 2015
Раздают: 336    Качают: 13
Скачать торрент
Скачать торрент
Описание торрента

СообщениеДобавлено: 08 фев 2015 

Информация о фильме
Название: Астерикс: Земля Богов
Оригинальное название: Astérix: Le domaine des dieux
Год выпуска: 2014
Жанр: Мультфильм, приключения, фэнтези, комедия
Выпущено: Франция
Режиссер: Александр Астье, Луис Клиши
В ролях: Роже Карель, Гийом Бриа, Лоран Дойч, Лоран Лафитт, Александр Астье, Ален Шаба, Эли Семун, Жеральдин Накаш, Артюс де Пенгерн, Лионель Астье
О фильме: Астерикс и его лучший друг Обеликс продолжают свою многолетнюю борьбу с Цезарем, который хочет наконец-то расправиться с неукротимыми галлами. Вокруг деревни Астерикса Цезарь приказывает построить новый Рим — Землю Богов. В галльской деревне хаос и смятение. Но Астерикс и Обеликс не сдаются!

Файл
Качество: BDRip (1080p)
Видео: MPEG-4 AVC, 6666 Кбит/с, 1920x1080, 23.976 кадр/с
Аудио: AC3, 6 ch, 640 Кбит/с, DTS, 6 ch, 1509 Кбит/с
Размер: 5.27 ГБ
Продолжительность: 01:25:35
Перевод: Дублированный
Озвучивание - Дублированное (Лицензия)
Сохранены оригинальные чаптеры как на Blu-Ray.
x264 [info]: frame I:1119 Avg QP:12.89 size:228586
x264 [info]: frame P:35839 Avg QP:16.13 size: 63565
x264 [info]: frame B:86151 Avg QP:16.37 size: 20230
x264 [info]: consecutive B-frames: 10.5% 4.9% 12.9% 8.3% 5.9% 55.2% 0.9% 0.2% 0.5% 0.7%
x264 [info]: mb I I16..4: 26.8% 22.7% 50.5%
x264 [info]: mb P I16..4: 8.1% 10.6% 6.4% P16..4: 31.9% 14.6% 4.9% 1.4% 0.2% skip:22.0%
x264 [info]: mb B I16..4: 1.7% 1.7% 0.8% B16..8: 37.8% 9.7% 1.5% direct: 3.5% skip:43.4% L0:48.0% L1:44.1% BI: 7.9%
x264 [info]: 8x8 transform intra:40.2% inter:35.6%
x264 [info]: direct mvs spatial:97.9% temporal:2.1%
x264 [info]: coded y,uvDC,uvAC intra: 60.6% 72.6% 50.2% inter: 14.7% 23.9% 12.3%
x264 [info]: i16 v,h,dc,p: 49% 14% 16% 20%
x264 [info]: i8 v,h,dc,ddl,ddr,vr,hd,vl,hu: 14% 13% 19% 7% 8% 8% 9% 9% 12%
x264 [info]: i4 v,h,dc,ddl,ddr,vr,hd,vl,hu: 25% 16% 32% 3% 5% 5% 5% 4% 5%
x264 [info]: i8c dc,h,v,p: 37% 34% 18% 11%
x264 [info]: Weighted P-Frames: Y:5.8% UV:4.3%
x264 [info]: ref P L0: 64.4% 6.4% 18.5% 8.4% 2.3% 0.1%
x264 [info]: ref B L0: 88.0% 9.7% 2.3%
x264 [info]: ref B L1: 93.3% 6.7%
x264 [info]: kb/s:6663.37

Общее
Уникальный идентификатор : 196903378305138118111059485691317915867 (0x94223614038CB052B5B11C17B05510DB)
Полное имя : D:ЗагрузкиAsterix.2014.x264.BDRip.(1080p).ExKinoRay.mkv
Формат : Matroska
Версия формата : Version 2
Размер файла : 5,27 Гбайт
Продолжительность : 1 ч. 25 м.
Общий поток : 8815 Кбит/сек
Название фильма : Астерикс: Земля Богов.2014.Rip by: ollan
Дата кодирования : UTC 2015-02-06 22:07:04
Программа кодирования : mkvmerge v5.6.0 ('Kenya Kane') built on May 27 2012 16:44:04
Библиотека кодирования : libebml v1.2.3 + libmatroska v1.3.0
Видео
Идентификатор : 1
Формат : AVC
Формат/Информация : Advanced Video Codec
Профиль формата : High@L4.1
Параметр CABAC формата : Да
Параметр ReFrames формата : 4 кадра
Идентификатор кодека : V_MPEG4/ISO/AVC
Продолжительность : 1 ч. 25 м.
Битрейт : 6666 Кбит/сек
Ширина : 1920 пикселей
Высота : 1080 пикселей
Соотношение сторон : 16:9
Режим частоты кадров : Постоянный
Частота кадров : 23,976 кадра/сек
Цветовое пространство : YUV
Субдискретизация насыщенности : 4:2:0
Битовая глубина : 8 бит
Тип развёртки : Прогрессивная
Бит/(Пиксели*Кадры) : 0.134
Размер потока : 3,88 Гбайт (74%)
Библиотека кодирования : x264 core 125 r2200 999b753
Настройки программы : cabac=1 / ref=4 / deblock=1:-3:-3 / analyse=0x3:0x133 / me=umh / subme=11 / psy=1 / psy_rd=1.00:0.10 / mixed_ref=1 / me_range=32 / chroma_me=1 / trellis=2 / 8x8dct=1 / cqm=0 / deadzone=21,11 / fast_pskip=0 / chroma_qp_offset=-3 / threads=12 / lookahead_threads=2 / sliced_threads=0 / nr=0 / decimate=0 / interlaced=0 / bluray_compat=0 / constrained_intra=0 / bframes=9 / b_pyramid=2 / b_adapt=2 / b_bias=0 / direct=3 / weightb=1 / open_gop=0 / weightp=2 / keyint=240 / keyint_min=23 / scenecut=40 / intra_refresh=0 / rc=2pass / mbtree=0 / bitrate=6666 / ratetol=1.0 / qcomp=0.60 / qpmin=0 / qpmax=69 / qpstep=4 / cplxblur=20.0 / qblur=0.5 / ip_ratio=1.40 / pb_ratio=1.30 / aq=1:1.00
Язык : French
Default : Да
Forced : Нет
Аудио #1
Идентификатор : 2
Формат : AC-3
Формат/Информация : Audio Coding 3
Расширение режима : CM (complete main)
Параметр Endianness формата : Big
Идентификатор кодека : A_AC3
Продолжительность : 1 ч. 25 м.
Вид битрейта : Постоянный
Битрейт : 640 Кбит/сек
Каналы : 6 каналов
Расположение каналов : Front: L C R, Side: L R, LFE
Частота : 48,0 КГц
Битовая глубина : 16 бит
Метод сжатия : С потерями
Размер потока : 392 Мбайт (7%)
Заголовок : Дублированный (Лицензия)
Язык : Russian
Default : Да
Forced : Нет
Аудио #2
Идентификатор : 3
Формат : DTS
Формат/Информация : Digital Theater Systems
Режим : 16
Параметр Endianness формата : Big
Идентификатор кодека : A_DTS
Продолжительность : 1 ч. 25 м.
Вид битрейта : Постоянный
Битрейт : 1509 Кбит/сек
Каналы : 6 каналов
Расположение каналов : Front: L C R, Side: L R, LFE
Частота : 48,0 КГц
Битовая глубина : 24 бит
Метод сжатия : С потерями
Размер потока : 924 Мбайт (17%)
Заголовок : Дублированный (Лицензия)
Язык : Russian
Default : Нет
Forced : Нет
Меню
00:00:00.000 : fr:Chapter 01
00:09:02.208 : fr:Chapter 02
00:20:30.187 : fr:Chapter 03
00:31:00.525 : fr:Chapter 04
00:44:12.316 : fr:Chapter 05
00:56:11.201 : fr:Chapter 06
01:04:48.718 : fr:Chapter 07
01:17:21.762 : fr:Chapter 08
01:25:34.587 : fr:Chapter 09





Релиз от: Rip by:



   Похожие торренты   Торрент   Размер 
В этой теме нет новых непрочитанных сообщений. Астерикс: Земля Богов / Asterix: Le domaine des dieux (2014) BDRip 1080p от HDClub | 3D-Video | halfOU | Лицензия

352 | 17

5.19 ГБ

В этой теме нет новых непрочитанных сообщений. Астерикс: Земля Богов / Astérix: Le domaine des dieux / Asterix: The Mansions of the Gods (2014) BDRip 1080p от Ash61 | 3D-Video | halfOU

148 | 10

4.12 ГБ

В этой теме нет новых непрочитанных сообщений. Астерикс: Земля Богов / Astérix: Le domaine des dieux (2014) BDRip 720p | Лицензия

1232 | 33

3.36 ГБ

В этой теме нет новых непрочитанных сообщений. Астерикс: Земля Богов / Astérix: Le domaine des dieux (2014) BDRip-AVC от HELLYWOOD | Лицензия

195 | 18

1.43 ГБ

В этой теме нет новых непрочитанных сообщений. Астерикс: Земля Богов / Astérix: Le domaine des dieux (2014) BDRip 720p от HELLYWOOD | Лицензия

428 | 13

2.91 ГБ

В этой теме нет новых непрочитанных сообщений. Астерикс: Земля Богов / Astérix: Le domaine des dieux (2014) BDRip-AVC от Leonardo and Scarabey | Лицензия

40 | 5

1.24 ГБ

В этой теме нет новых непрочитанных сообщений. Астерикс: Земля Богов / Asterix: Le domaine des dieux (2014) HDRip | Лицензия

551 | 12

1.37 ГБ




Вы не можете начинать темы
Вы не можете отвечать на сообщения
Вы не можете редактировать свои сообщения
Вы не можете удалять свои сообщения
Вы не можете добавлять вложения

Перейти:  
Для Мосгорсуда, Роскомнадзора и рекламодателей: mosgorsud-torrent[собачка]yandex.ru
 Вход
ppkBB3cker v.2 © 2008-2014 @ PPK
[ Time : 0.043s | 15 Queries | GZIP : Off ]

Торрент трекер RUTOR.IN, Не можете зайти на rutor.org? Какой новый адрес рутор? Какое зеркало рутор? Не работает rutor.org и зеркала? Тогда наш торрент специально для вас. Rutor.in неофициальное зеркало rutor. В случае если у Вас заблокирован rutor или вдруг Вы не можете на него зайти, то Вы без труда сможете скачать бесплатно и без рекламы последние новинки кино, игр, сериалов и прочего у нас, на Rutor.in. Не нужно использовать прокси, чтобы зайти на рутор, достаточно воспользоваться нашим ресурсом. Все новые фильмы, игры, сериалы, книги и музыка за 2013 и 2014 годы через торрент бесплатно. Скачивайте фильмы в хорошем качестве, игры для пк, xbox, playstation без регистрации. У нас вы найдете новые Зарубежные сериалы и Русские сериалы 2013, 2014, 2015 годов. Оставайтесь с нами, качайте любимые фильмы, игры, сериалы, книги и музыку.