img image001 image001 image001 image001 image001 image001 image001 image001 image001 image001 image001 image001 image001 image001 image001

Planets Sun Sun Sun
Статистика раздачи
Автор: Nickolas3434 | Размер: 993.92 МБ | Добавлен: 11 фев 2015
Раздают: 812    Качают: 19
Скачать торрент
Скачать торрент
Описание торрента

СообщениеДобавлено: 11 фев 2015 

Год выпуска: 2014
Страна: Франция
Жанр: мультфильм, приключения, фэнтези, комедия
Продолжительность: 01:25:34
Перевод: Дублированный
Режиссер: Луис Клиши, Александр Астье
В ролях: Роже Карель, Гийом Бриа, Лоран Дойч, Лоран Лафитт, Александр Астье, Ален Шаба, Эли Семун, Жеральдин Накаш, Артюс де Пенгерн, Лионель Астье
Описание: Астерикс и его лучший друг Обеликс продолжают свою многолетнюю борьбу с Цезарем, который хочет наконец-то расправиться с неукротимыми галлами. Вокруг деревни Астерикса Цезарь приказывает построить новый Рим — Землю Богов. В галльской деревне хаос и смятение. Но Астерикс и Обеликс не сдаются!

Видео кодек: MPEG-4 AVC
Качество: BDRip 720p
Параметры Видео: 1280x720, 23.976 fps; ~1 450 kbps avg
Параметры Звука: 48.0 KHz, AAC, ~165.00 kbps avg, 2ch
Формат: mp4
Релиз:


General
Complete name : E:Asteriks_Zemlya_Bogov.2014.D.BDRip.720p_KinoGadget.mp4
Format : MPEG-4
Format profile : Base Media
Codec ID : isom
File size : 994 MiB
Duration : 1h 25mn
Overall bit rate mode : Variable
Overall bit rate : 1 624 Kbps
Movie name : Астерикс: Земля Богов
Performer : Луис Клиши, Александр Астье
Genre : Animation
ContentType : Short Film
Recorded date : 2014
Encoded date : UTC 2015-02-07 10:16:58
Tagged date : UTC 2015-02-08 11:45:49
Cover : Yes
LongDeion : Астерикс и его лучший друг Обеликс продолжают свою многолетнюю борьбу с Цезарем, который хочет наконец-то расправиться с неукротимыми галлами. Вокруг деревни Астерикса Цезарь приказывает построить новый Рим — Землю Богов. В галльской деревне хаос и смятение. Но Астерикс и Обеликс не сдаются!
HDVideo : Yes
Video
ID : 1
Format : AVC
Format/Info : Advanced Video Codec
Format profile : High@L4.1
Format settings, CABAC : Yes
Format settings, ReFrames : 9 frames
Codec ID : avc1
Codec ID/Info : Advanced Video Coding
Duration : 1h 25mn
Bit rate : 1 450 Kbps
Maximum bit rate : 10.2 Mbps
Width : 1 280 pixels
Height : 720 pixels
Display aspect ratio : 16:9
Frame rate mode : Constant
Frame rate : 23.976 fps
Color space : YUV
Chroma subsampling : 4:2:0
Bit depth : 8 bits
Scan type : Progressive
Bits/(Pixel*Frame) : 0.066
Stream size : 888 MiB (89%)
Writing library : x264 core 144 r2525 40bb568
Encoding settings : cabac=1 / ref=9 / deblock=1:-1:-1 / analyse=0x3:0x133 / me=umh / subme=10 / psy=1 / psy_rd=1.00:0.20 / mixed_ref=1 / me_range=32 / chroma_me=1 / trellis=2 / 8x8dct=1 / cqm=0 / deadzone=21,11 / fast_pskip=1 / chroma_qp_offset=-3 / threads=3 / lookahead_threads=1 / sliced_threads=0 / nr=0 / decimate=1 / interlaced=0 / bluray_compat=0 / constrained_intra=0 / bframes=8 / b_pyramid=2 / b_adapt=2 / b_bias=0 / direct=3 / weightb=1 / open_gop=0 / weightp=2 / keyint=240 / keyint_min=23 / scenecut=40 / intra_refresh=0 / rc_lookahead=60 / rc=crf / mbtree=1 / crf=21.0 / qcomp=0.60 / qpmin=0 / qpmax=69 / qpstep=4 / ip_ratio=1.40 / aq=1:1.00
Encoded date : UTC 2015-02-07 08:54:25
Tagged date : UTC 2015-02-07 10:17:51
Audio
ID : 2
Format : AAC
Format/Info : Advanced Audio Codec
Format profile : LC
Codec ID : 40
Duration : 1h 25mn
Duration_FirstFrame : 64ms
Bit rate mode : Variable
Bit rate : 165 Kbps
Maximum bit rate : 232 Kbps
Channel count : 2 channels
Channel positions : Front: L R
Sampling rate : 48.0 KHz
Compression mode : Lossy
Stream size : 101 MiB (10%)
Language : Russian
Tagged date : UTC 2015-02-07 10:17:51





   Похожие торренты   Торрент   Размер 
В этой теме нет новых непрочитанных сообщений. Астерикс: Земля Богов / Astérix: Le domaine des dieux (2014) BDRip 720p | Лицензия

1232 | 33

3.36 ГБ

В этой теме нет новых непрочитанных сообщений. Астерикс: Земля Богов / Astérix: Le domaine des dieux (2014) BDRip 720p от HELLYWOOD | Лицензия

428 | 13

2.91 ГБ

В этой теме нет новых непрочитанных сообщений. Астерикс: Земля Богов / Astérix: Le domaine des dieux (2014) BDRip 720p от Leonardo and Scarabey | Лицензия

510 | 27

1.97 ГБ

В этой теме нет новых непрочитанных сообщений. Астерикс: Земля Богов / Asterix: Le domaine des dieux (2014) WEB-DL 720p | iTunes

1141 | 17

2.54 ГБ

В этой теме нет новых непрочитанных сообщений. Астерикс: Земля Богов / Astérix: Le domaine des dieux / Asterix: The Mansions of the Gods (2014) BDRip 1080p от Ash61 | 3D-Video | halfOU

148 | 10

4.12 ГБ

В этой теме нет новых непрочитанных сообщений. Астерикс: Земля Богов / Astérix: Le domaine des dieux (2014) BDRip-AVC от HELLYWOOD | Лицензия

195 | 18

1.43 ГБ

В этой теме нет новых непрочитанных сообщений. OST - Астерикс: Земля Богов / Asterix: Le Domaine Des Dieux (2014) MP3

24 | 3

113.11 МБ




Вы не можете начинать темы
Вы не можете отвечать на сообщения
Вы не можете редактировать свои сообщения
Вы не можете удалять свои сообщения
Вы не можете добавлять вложения

Перейти:  
Для Мосгорсуда, Роскомнадзора и рекламодателей: mosgorsud-torrent[собачка]yandex.ru
 Вход
ppkBB3cker v.2 © 2008-2014 @ PPK
[ Time : 0.051s | 17 Queries | GZIP : Off ]

Торрент трекер RUTOR.IN, Не можете зайти на rutor.org? Какой новый адрес рутор? Какое зеркало рутор? Не работает rutor.org и зеркала? Тогда наш торрент специально для вас. Rutor.in неофициальное зеркало rutor. В случае если у Вас заблокирован rutor или вдруг Вы не можете на него зайти, то Вы без труда сможете скачать бесплатно и без рекламы последние новинки кино, игр, сериалов и прочего у нас, на Rutor.in. Не нужно использовать прокси, чтобы зайти на рутор, достаточно воспользоваться нашим ресурсом. Все новые фильмы, игры, сериалы, книги и музыка за 2013 и 2014 годы через торрент бесплатно. Скачивайте фильмы в хорошем качестве, игры для пк, xbox, playstation без регистрации. У нас вы найдете новые Зарубежные сериалы и Русские сериалы 2013, 2014, 2015 годов. Оставайтесь с нами, качайте любимые фильмы, игры, сериалы, книги и музыку.