img image001 image001 image001 image001 image001 image001 image001 image001 image001 image001 image001 image001 image001 image001 image001

Planets Sun Sun Sun
Статистика раздачи
Автор: Nickolas3434 | Размер: 350.55 МБ | Добавлен: 12 фев 2015
Раздают: 921    Качают: 34
Скачать торрент
Скачать торрент
Описание торрента

СообщениеДобавлено: 12 фев 2015 

Информация о фильме
Название: Феи. Торт и Спорт
Оригинальное название: Pixie Hollow Bake Off
Год выпуска: 2014
Жанр: Короткометражный, анимационный
Выпущено: США, DisneyToon Studios
Режиссер: Эллиот М. Бур
Роли озвучивают: Памела Адлон, Джефф Беннетт, Джада Де Лаурентиис, Меган Хилти, Джейн Хоррокс, Анжелика Хьюстон, Люси Лью, Роб Полсен, Рэйвен, Мэй Уитман
О фильме: Тинк вступает в соревнование с кулинарной суперзвездой Джелатой, и теперь наши любимые феи должны использовать свои таланты, чтобы помочь Тинк, и всем вместе испечь победный торт для вечеринки в честь приезда Королевы Клэрион.

Файл
Качество: BDRip (1080p)
Видео: MPEG-4 AVC, 8522 Kбит/с, 1920x1080
Аудио: Русский, английский (AC3, 2 ch, 320 Кбит/с)
Продолжительность: 00:05:21
Перевод: Дублированный
Субтитры: Русские, английские
General
Unique ID : 219200576191459732303740793805095165356 (0xA4E87ECF598C46889C1D9186E85DDDAC)
Complete name : C:Pixie.Hollow. Bake.off.2013.D.BDRip.1080p.ExKinoRay.mkv
Format : Matroska
Format version : Version 4 / Version 2
File size : 351 MiB
Duration : 5mn 21s
Overall bit rate : 9 135 Kbps
Movie name : Pixie Hollow Bake off 2013 from ExKinoRay
Encoded date : UTC 2015-02-11 01:41:14
Writing application : mkvmerge v6.6.0 ('The Edge Of The In Between') built on Dec 1 2013 17:55:00
Writing library : libebml v1.3.0 + libmatroska v1.4.1
Video
ID : 1
Format : AVC
Format/Info : Advanced Video Codec
Format profile : High@L4.1
Format settings, CABAC : Yes
Format settings, ReFrames : 5 frames
Codec ID : V_MPEG4/ISO/AVC
Duration : 5mn 21s
Bit rate : 8 522 Kbps
Width : 1 920 pixels
Height : 1 080 pixels
Display aspect ratio : 16:9
Frame rate mode : Constant
Frame rate : 23.976 fps
Color space : YUV
Chroma subsampling : 4:2:0
Bit depth : 8 bits
Scan type : Progressive
Bits/(Pixel*Frame) : 0.171
Stream size : 319 MiB (91%)
Title : Enigma-Vladislav71
Writing library : x264 core 133 r2334 a3ac64b
Encoding settings : cabac=1 / ref=5 / deblock=1:-2:-2 / analyse=0x3:0x113 / me=umh / subme=10 / psy=1 / psy_rd=1.05:0.15 / mixed_ref=1 / me_range=32 / chroma_me=1 / trellis=2 / 8x8dct=1 / cqm=0 / deadzone=21,11 / fast_pskip=0 / chroma_qp_offset=-3 / threads=12 / lookahead_threads=2 / sliced_threads=0 / nr=0 / decimate=0 / interlaced=0 / bluray_compat=0 / constrained_intra=0 / bframes=8 / b_pyramid=2 / b_adapt=2 / b_bias=0 / direct=3 / weightb=1 / open_gop=0 / weightp=2 / keyint=240 / keyint_min=23 / scenecut=40 / intra_refresh=0 / rc=2pass / mbtree=0 / bitrate=8522 / ratetol=1.0 / qcomp=0.60 / qpmin=0 / qpmax=51 / qpstep=4 / cplxblur=20.0 / qblur=0.5 / ip_ratio=1.40 / pb_ratio=1.30 / aq=1:1.00
Default : Yes
Forced : No
Color primaries : BT.709
Transfer characteristics : BT.709
Matrix coefficients : BT.709
Audio #1
ID : 2
Format : AC-3
Format/Info : Audio Coding 3
Mode extension : CM (complete main)
Format settings, Endianness : Big
Codec ID : A_AC3
Duration : 5mn 21s
Bit rate mode : Constant
Bit rate : 320 Kbps
Channel(s) : 2 channels
Channel positions : Front: L R
Sampling rate : 48.0 KHz
Bit depth : 16 bits
Compression mode : Lossy
Stream size : 12.3 MiB (4%)
Title : DUB
Language : Russian
Default : Yes
Forced : No
Audio #2
ID : 3
Format : AC-3
Format/Info : Audio Coding 3
Mode extension : CM (complete main)
Format settings, Endianness : Big
Codec ID : A_AC3
Duration : 5mn 21s
Bit rate mode : Constant
Bit rate : 320 Kbps
Channel(s) : 2 channels
Channel positions : Front: L R
Sampling rate : 48.0 KHz
Bit depth : 16 bits
Compression mode : Lossy
Stream size : 12.3 MiB (4%)
Title : ENG
Language : English
Default : No
Forced : No
Text #1
ID : 4
Format : UTF-8
Codec ID : S_TEXT/UTF8
Codec ID/Info : UTF-8 Plain Text
Title : full
Language : Russian
Default : No
Forced : No
Text #2
ID : 5
Format : UTF-8
Codec ID : S_TEXT/UTF8
Codec ID/Info : UTF-8 Plain Text
Title : SDH
Language : English
Default : No
Forced : No




Релиз от:
Авторы релиза:



   Похожие торренты   Торрент   Размер 
В этой теме нет новых непрочитанных сообщений. Феи. Торт и Спорт / Pixie Hollow. Bake off (2013) BDRip 720 от SuperMin

746 | 55

165.51 МБ

В этой теме нет новых непрочитанных сообщений. Феи. Торт и Спорт / Pixie Hollow. Bake off (2013) BDRip 1080 от SuperMin

775 | 37

279.84 МБ

В этой теме нет новых непрочитанных сообщений. Турнир Долины Фей / Pixie Hollow Games (2011) BDRip 1080p

630 | 14

1.16 ГБ

В этой теме нет новых непрочитанных сообщений. Турнир Долины Фей / Pixie Hollow Games (2011) BDRip от Stranik 2.0 | D

41 | 5

503.36 МБ

В этой теме нет новых непрочитанных сообщений. Турнир Долины Фей / Pixie Hollow Games (2011) BDRip 720p от Torrent-Xzona

60 | 11

699.75 МБ

В этой теме нет новых непрочитанных сообщений. Турнир Долины Фей / Tinker Bell and the Pixie Hollow Games (2011) HDTVRip

81 | 10

300.51 МБ

В этой теме нет новых непрочитанных сообщений. Торт / Cake (2014) BDRip 1080p | L2

152 | 13

7.78 ГБ




Вы не можете начинать темы
Вы не можете отвечать на сообщения
Вы не можете редактировать свои сообщения
Вы не можете удалять свои сообщения
Вы не можете добавлять вложения

Перейти:  
Для Мосгорсуда, Роскомнадзора и рекламодателей: mosgorsud-torrent[собачка]yandex.ru
 Вход
ppkBB3cker v.2 © 2008-2014 @ PPK
[ Time : 0.046s | 15 Queries | GZIP : On ]

Торрент трекер RUTOR.IN, Не можете зайти на rutor.org? Какой новый адрес рутор? Какое зеркало рутор? Не работает rutor.org и зеркала? Тогда наш торрент специально для вас. Rutor.in неофициальное зеркало rutor. В случае если у Вас заблокирован rutor или вдруг Вы не можете на него зайти, то Вы без труда сможете скачать бесплатно и без рекламы последние новинки кино, игр, сериалов и прочего у нас, на Rutor.in. Не нужно использовать прокси, чтобы зайти на рутор, достаточно воспользоваться нашим ресурсом. Все новые фильмы, игры, сериалы, книги и музыка за 2013 и 2014 годы через торрент бесплатно. Скачивайте фильмы в хорошем качестве, игры для пк, xbox, playstation без регистрации. У нас вы найдете новые Зарубежные сериалы и Русские сериалы 2013, 2014, 2015 годов. Оставайтесь с нами, качайте любимые фильмы, игры, сериалы, книги и музыку.