img image001 image001 image001 image001 image001 image001 image001 image001 image001 image001 image001 image001 image001 image001 image001

Planets Sun Sun Sun
Статистика раздачи
Автор: Nickolas3434 | Размер: 390.03 МБ | Добавлен: 12 фев 2015
Раздают: 293    Качают: 13
Скачать торрент
Скачать торрент
Описание торрента

СообщениеДобавлено: 12 фев 2015 

Год выпуска: 2014
Жанр: Мультфильм, фантастика, комедия, полнометражный
Страна: США
Продолжительность: 01:41:53
Перевод: Дубляж - Чистый звук
Режиссер: Дон Холл, Крис Уильямс
В ролях: Райан Поттер, Скотт Эдсит, Джейми Чунг, ТиДжей Миллер, Дженесис Родригес, Дэймон Уайанс мл., Майя Рудольф, Джеймс Кромуэлл, Алан Тьюдик, Чарльз Адлер
О фильме:
Юный Хиро Хамада — прирожденный изобретатель и гений конструирования роботов. Вместе со старшим братом Тадаши они воплощают в жизнь самые передовые идеи в Техническом университете города будущего Сан-Франсокио. После серии загадочных событий друзья оказываются в центре коварного заговора. Отчаявшись, Хиро решает использовать веселого и добродушного экспериментального робота Бэймакса, перепрограммировав его в неуязвимую боевую машину.

Формат: MP4
Качество: HDRip
Видео: 400 Kb/s, 640x272
Аудио: AAC, 128 Kb/s (2 ch)
Формат : MPEG-4
Профиль формата : Base Media
Идентификатор кодека : isom
Размер файла : 390 MiB
Продолжительность : 1h 41mn
Режим общего битрейта : Variable
Общий поток : 535 Kbps
Программа кодирования : XviD4PSP 6.0 / 54.29.105
Video
Идентификатор : 1
Формат : MPEG-4 Visual
Профиль формата : Fine Granularity Scalable@L1
Параметр BVOP формата : Yes
Параметр QPel формата : No
Параметр GMC формата : No warppoints
Параметр матрицы формата : Default (H.263)
Идентификатор кодека : 20
Продолжительность : 1h 41mn
Вид битрейта : Variable
Битрейт : 400 Kbps
Максимальный битрейт : 5 000 Kbps
Ширина : 640 pixels
Высота : 272 pixels
Соотношение сторон : 2.35:1
Соотношение сторон в оригинале : 2.35:1
Режим частоты кадров : Constant
Частота кадров : 30.000 fps
Цветовое пространство : YUV
Субдискретизация насыщенности : 4:2:0
Битовая глубина : 8 bits
Тип развёртки : Progressive
Метод сжатия : Lossy
Бит/(Пиксели*Кадры) : 0.077
Размер потока : 291 MiB (75%)
Библиотека кодирования : Lavc54.60.100
Audio
Идентификатор : 2
Формат : AAC
Формат/Информация : Advanced Audio Codec
Профиль формата : LC
Идентификатор кодека : 40
Продолжительность : 1h 41mn
Вид битрейта : Constant
Битрейт : 128 Kbps
Каналы : 2 channels
Расположение каналов : Front: L R
Частота : 48.0 KHz
Метод сжатия : Lossy
Размер потока : 93.2 MiB (24%)


Скриншоты:



   Похожие торренты   Торрент   Размер 
В этой теме нет новых непрочитанных сообщений. Город героев / Big Hero 6 (2014) HDRip AVC | Чистый звук

105 | 3

1.54 ГБ

В этой теме нет новых непрочитанных сообщений. Город героев / Big Hero 6 (2014) HDRip | Чистый звук

1034 | 16

1.37 ГБ

В этой теме нет новых непрочитанных сообщений. Город героев / Big Hero 6 (2014) HDRip от Scarabey | Чистый звук

236 | 10

744.77 МБ

В этой теме нет новых непрочитанных сообщений. Город героев / Big Hero 6 (2014) HDRip от Scarabey | Чистый звук

2089 | 31

1.45 ГБ

В этой теме нет новых непрочитанных сообщений. Город героев / Big Hero 6 (2014) WEB-DL 720p | Чистый звук

714 | 5

3.18 ГБ

В этой теме нет новых непрочитанных сообщений. Город героев / Big Hero 6 (2014) DVDScr | Чистый звук

350 | 10

699.51 МБ

В этой теме нет новых непрочитанных сообщений. Город героев / Big Hero 6 (2014) WEB-DLRip | Чистый звук

651 | 8

1.37 ГБ




Вы не можете начинать темы
Вы не можете отвечать на сообщения
Вы не можете редактировать свои сообщения
Вы не можете удалять свои сообщения
Вы не можете добавлять вложения

Перейти:  
Для Мосгорсуда, Роскомнадзора и рекламодателей: mosgorsud-torrent[собачка]yandex.ru
 Вход
ppkBB3cker v.2 © 2008-2014 @ PPK
[ Time : 0.037s | 18 Queries | GZIP : Off ]

cron