img image001 image001 image001 image001 image001 image001 image001 image001 image001 image001 image001 image001 image001 image001 image001

Planets Sun Sun Sun
Статистика раздачи
Автор: Nickolas3434 | Размер: 1.44 ГБ | Добавлен: 16 фев 2015
Раздают: 70    Качают: 10
Скачать торрент
Скачать торрент
Описание торрента

СообщениеДобавлено: 16 фев 2015 

Информация о фильме
Название: Приключения Лео
Оригинальное название: The story of Leo
Год выхода: 2004
Жанр: мультфильм, детский
Режиссер: Марио Камби / Mario Cambi
О фильме:
Дружелюбный нрав львенка Лео - предмет постоянного обсуждения в стае. Как же так? Малыш отказывается есть мясо и по-доброму относится ко всем, кого встречает на своем пути. Ему и в голову не приходит нападать на слабых и беззащитных, наоборот, он стремится помочь попавшим в беду, и совершенно не важно, кто это будет.
Другие львы не понимают такого отношения подростка к жизни и предпочитают не общаться с ним. Где же зов крови, где характер хищника, возмущаются они. На прогулке Лео случайно знакомится с двумя слонятами, потерявшими маму. Они не знают, что произошло и куда она исчезла, но без ее заботы еще не могут обходиться.
Добрый и сознательный Лео на правах старшего товарища берет на себя заботу о подопечных до той поры, пока не найдется их родительница. Вместе друзьям придется пройти многое, но от этого их дружба станет только крепче!!!

Страна: Италия
Продолжительность: 01:15:21
Перевод: Профессиональный (многоголосый, закадровый)
Файл
Кодек: XviD
Качество: DVDRip
Видео: 720x400 (1.80:1), 25 fps, XviD build 50 ~2342 kbps avg, 0.33 bit/pixel
Звук: 48 kHz, AC3 Dolby Digital, 2/0 (L,R) ch, ~384.00 kbps avg
Субтитры: отсутствуют
Семпл
General
Complete name : C:UsersUserDesktopVIDEOThe.story.of.Leo.XviD.DVDRip.avi
Format : AVI
Format/Info : Audio Video Interleave
File size : 1.44 GiB
Duration : 1h 15mn
Overall bit rate : 2 737 Kbps
Movie name : The story of Leo
Writing application : VirtualDubMod 1.5.10.3 | www.virtualdub-fr.org || (build 2550/release)
Comment : ripped by domin8
Video #0
ID : 0
Format : MPEG-4 Visual
Format profile : Advanced Simple@L5
Format settings, BVOP : Yes
Format settings, QPel : No
Format settings, GMC : No warppoints
Format settings, Matrix : Default (H.263)
Codec ID : XVID
Codec ID/Hint : XviD
Duration : 1h 15mn
Bit rate : 2 343 Kbps
Width : 720 pixels
Height : 400 pixels
Display aspect ratio : 16:9
Frame rate : 25.000 fps
Color space : YUV
Chroma subsampling : 4:2:0
Bit depth : 8 bits
Scan type : Progressive
Bits/(Pixel*Frame) : 0.325
Stream size : 1.23 GiB (86%)
Writing library : XviD 1.2.1 (UTC 2008-12-04)
Audio #1
ID : 1
Format : AC-3
Format/Info : Audio Coding 3
Mode extension : CM (complete main)
Codec ID : 2000
Duration : 1h 15mn
Bit rate mode : Constant
Bit rate : 384 Kbps
Channel(s) : 2 channels
Channel positions : Front: L R
Sampling rate : 48.0 KHz
Bit depth : 16 bits
Stream size : 207 MiB (14%)
Alignment : Split accross interleaves
Interleave, duration : 40 ms (1.00 video frame)
Interleave, preload duration : 500 ms


Автор рипа: domin8



   Похожие торренты   Торрент   Размер 
В этой теме нет новых непрочитанных сообщений. Приключения в Палм-Бич / The Palm Beach Story (1942) DVDRip от egoleshik | P, А

15 | 11

1.46 ГБ

В этой теме нет новых непрочитанных сообщений. История Золушки / A Cinderella Story (2004) DVDRip

2 | 3

1.46 ГБ

В этой теме нет новых непрочитанных сообщений. История Золушки / A Cinderella Story (2004) DVDRip | КПК от Generalfilm

345 | 3

362.11 МБ

В этой теме нет новых непрочитанных сообщений. История Золушки / A Cinderella story (2004) DVDRip от Pasha74

17 | 6

1.66 ГБ

В этой теме нет новых непрочитанных сообщений. Приключения Ади в подводном мире / Adi under the Sea (2004) DVDRip от RG Superdetki

4 | 1

1009.31 МБ

В этой теме нет новых непрочитанных сообщений. Приключения пингвинят / Ozie Boo! [01-73 из ??] (2004) DVDRip от New-Team | D | лицензия

11 | 11

5.39 ГБ

В этой теме нет новых непрочитанных сообщений. Приключения пингвинят / Ozie Boo! [01-116 из ??] (2004) DVDRip от New-Team | D | лицензия

23 | 12

7.53 ГБ




Вы не можете начинать темы
Вы не можете отвечать на сообщения
Вы не можете редактировать свои сообщения
Вы не можете удалять свои сообщения
Вы не можете добавлять вложения

Перейти:  
Для Мосгорсуда, Роскомнадзора и рекламодателей: mosgorsud-torrent[собачка]yandex.ru
 Вход
ppkBB3cker v.2 © 2008-2014 @ PPK
[ Time : 0.037s | 16 Queries | GZIP : Off ]

Торрент трекер RUTOR.IN, Не можете зайти на rutor.org? Какой новый адрес рутор? Какое зеркало рутор? Не работает rutor.org и зеркала? Тогда наш торрент специально для вас. Rutor.in неофициальное зеркало rutor. В случае если у Вас заблокирован rutor или вдруг Вы не можете на него зайти, то Вы без труда сможете скачать бесплатно и без рекламы последние новинки кино, игр, сериалов и прочего у нас, на Rutor.in. Не нужно использовать прокси, чтобы зайти на рутор, достаточно воспользоваться нашим ресурсом. Все новые фильмы, игры, сериалы, книги и музыка за 2013 и 2014 годы через торрент бесплатно. Скачивайте фильмы в хорошем качестве, игры для пк, xbox, playstation без регистрации. У нас вы найдете новые Зарубежные сериалы и Русские сериалы 2013, 2014, 2015 годов. Оставайтесь с нами, качайте любимые фильмы, игры, сериалы, книги и музыку.
cron