img image001 image001 image001 image001 image001 image001 image001 image001 image001 image001 image001 image001 image001 image001 image001

Planets Sun Sun Sun
Статистика раздачи
Автор: Nickolas3434 | Размер: 1.4 ГБ | Добавлен: 18 фев 2015
Раздают: 9    Качают: 4
Скачать торрент
Скачать торрент
Описание торрента

СообщениеДобавлено: 18 фев 2015 

Информация о фильме
Название: Секретное оружие
Оригинальное название: Aberne og det hemmelige våben
Год выхода: 1995
Жанр: мультфильм, семейный
Режиссер: Янник Хаструп / Jannik Hastrup
В ролях: Отто Бранденбург, Лисбет Даль, Анн Мари Хельгер, Бендт Хильдебрандт, Томми Кентер, Йеспер Клейн, Керстен Лефельдт
О фильме:
Действие мультфильма разворачивается вокруг двух героев в стиле Ромео и Джульетты — юных обезьян Гектора и Эльвиры. Раздор между семьями приводит к всевозможным преградам в их дружбе.
Клан Гектора хочет заполучить власть над оружием, поэтому Эльвиру похищают и удерживают в заложницах в обмен на это. Тем не менее, как и во всех хороших сказках, в этой истории будет хороший конец.


Страна: Дания
Студия: Студия-изготовитель, если известна
Продолжительность: 01:10:14
Перевод: Профессиональный (полное дублирование) Лицензия "Мистерия Звука"
Файл
Кодек: XviD
Качество: DVDRip
Видео: 720x480 (1.50:1), 25 fps, XviD build 50 ~2392 kbps avg, 0.28 bit/pixel
Звук: 48 kHz, AC3 Dolby Digital, 2/0 (L,R) ch, ~448.00 kbps avg
Субтитры: отсутствуют

General
Complete name : C:UsersX666DesktopSELLSSekretnoe_oruzie_XviD_DVDRip_DUB.avi
Format : AVI
Format/Info : Audio Video Interleave
File size : 1.40 GiB
Duration : 1h 10mn
Overall bit rate : 2 851 Kbps
Movie name : Aberne og det Hemmelige Vaben [ripped by domin8]
Genre : Child's
Writing application : VirtualDubMod 1.5.10.3 | www.virtualdub-fr.org || (build 2550/release)
Original source form/Name : Cartoon
Video #0
ID : 0
Format : MPEG-4 Visual
Format profile : Advanced Simple@L5
Format settings, BVOP : Yes
Format settings, QPel : No
Format settings, GMC : No warppoints
Format settings, Matrix : Default (H.263)
Codec ID : XVID
Codec ID/Hint : XviD
Duration : 1h 10mn
Bit rate : 2 393 Kbps
Width : 720 pixels
Height : 480 pixels
Display aspect ratio : 3:2
Frame rate : 25.000 fps
Standard : NTSC
Color space : YUV
Chroma subsampling : 4:2:0
Bit depth : 8 bits
Scan type : Progressive
Bits/(Pixel*Frame) : 0.277
Stream size : 1.17 GiB (84%)
Writing library : XviD 1.2.1 (UTC 2008-12-04)
Audio #1
ID : 1
Format : AC-3
Format/Info : Audio Coding 3
Mode extension : CM (complete main)
Codec ID : 2000
Duration : 1h 10mn
Bit rate mode : Constant
Bit rate : 448 Kbps
Channel(s) : 2 channels
Channel positions : Front: L R
Sampling rate : 48.0 KHz
Bit depth : 16 bits
Stream size : 225 MiB (16%)
Alignment : Split accross interleaves
Interleave, duration : 40 ms (1.00 video frame)
Interleave, preload duration : 500 ms


Автор рипа: domin8



   Похожие торренты   Торрент   Размер 
В этой теме нет новых непрочитанных сообщений. Неслужебное задание 3: Секретное оружие [01-02 из 2] (2006) DVDRip

149 | 26

1.36 ГБ

В этой теме нет новых непрочитанных сообщений. Секретное оружие шпионов (2015) PDTVRip-AVC от SDARMY

172 | 6

289.54 МБ

В этой теме нет новых непрочитанных сообщений. Нам и не снилось. Секретное оружие вашего дома [эфир от 20.03] (2013) IPTVRip

13 | 8

1.77 ГБ

В этой теме нет новых непрочитанных сообщений. Секретное оружие Японии / Japan's Secret Weapon (2009) HDTVRip от AndrewWhite

2 | 4

698.57 МБ

В этой теме нет новых непрочитанных сообщений. Шерлок Холмс и секретное оружие / Sherlock Holmes and the Secret Weapon (1943) BDRip от HQCLUB

1 | 6

1.09 ГБ

В этой теме нет новых непрочитанных сообщений. Секретное оружие Японии / National Geographic: Japan's Secret Weapon (2009) HDTVRip 720p

137 | 3

1.22 ГБ

В этой теме нет новых непрочитанных сообщений. National Geographic: Секретное оружие Гитлера / National Geographic: Hitlers Secret Weapon (2010) SATRip

14 | 22

551.31 МБ




Вы не можете начинать темы
Вы не можете отвечать на сообщения
Вы не можете редактировать свои сообщения
Вы не можете удалять свои сообщения
Вы не можете добавлять вложения

Перейти:  
Для Мосгорсуда, Роскомнадзора и рекламодателей: mosgorsud-torrent[собачка]yandex.ru
 Вход
ppkBB3cker v.2 © 2008-2014 @ PPK
[ Time : 0.053s | 15 Queries | GZIP : Off ]

Торрент трекер RUTOR.IN, Не можете зайти на rutor.org? Какой новый адрес рутор? Какое зеркало рутор? Не работает rutor.org и зеркала? Тогда наш торрент специально для вас. Rutor.in неофициальное зеркало rutor. В случае если у Вас заблокирован rutor или вдруг Вы не можете на него зайти, то Вы без труда сможете скачать бесплатно и без рекламы последние новинки кино, игр, сериалов и прочего у нас, на Rutor.in. Не нужно использовать прокси, чтобы зайти на рутор, достаточно воспользоваться нашим ресурсом. Все новые фильмы, игры, сериалы, книги и музыка за 2013 и 2014 годы через торрент бесплатно. Скачивайте фильмы в хорошем качестве, игры для пк, xbox, playstation без регистрации. У нас вы найдете новые Зарубежные сериалы и Русские сериалы 2013, 2014, 2015 годов. Оставайтесь с нами, качайте любимые фильмы, игры, сериалы, книги и музыку.