img image001 image001 image001 image001 image001 image001 image001 image001 image001 image001 image001 image001 image001 image001 image001

Planets Sun Sun Sun
Статистика раздачи
Автор: Nickolas3434 | Размер: 1.45 ГБ | Добавлен: 20 фев 2015
Раздают: 5    Качают: 9
Скачать торрент
Скачать торрент
Описание торрента

СообщениеДобавлено: 20 фев 2015 

Информация о фильме
Название: My Scene: Звезды Голливуда
Оригинальное название: My Scene Goes Hollywood: The Movie
Год выхода: 2005
Жанр: мультфильм
Режиссер: Эрик Фогель / Eric Fogel
В ролях: Кэтлин Барр, Келли Шеридан, Николь Боума, Теган Мосс, Меган Блэк, Терри Классен, Сэффрон Хендерсон
О фильме:
Нет такой девушки, которая не мeчтaет быть кинозвездой. Знаменитaя кукла Барби и ee верныe подружки — Мэдисон, Челси, Ноли и Дилэнси — не исключениe. Однажды им выпaдает шанс сыграть маленькие роли в голливудском фильме. Показаться на экране в шикарных нарядах, блеснуть идеальным макияжем и продемонстрировать моднейшие прически — что может быть лучше? Ну, кое-что может. Например, когда Мэдисон вдруг приглашают на большую роль в паре с популярнейшим молодым актером! Вот это удача! Однако не вскружит ли голову Мэдисон ее нежданная слава? Не забудет ли она подруг ради волшебного мира кино?

Страна: США
Продолжительность: 01:10:28
Перевод: Профессиональный (полное дублирование) [Лицензия]
Файл
Кодек: XviD
Качество: DVDRip
Видео: 720x432 (1.67:1), 25 fps, XviD build 50 ~2324 kbps avg, 0.30 bit/pixel
Звук: Аудио #1: Русский: 48 kHz, AC3 Dolby Digital, 2/0 (L,R) ch, ~384.00 kbps avg
Аудио #2: Английский: 48 kHz, AC3 Dolby Digital, 2/0 (L,R) ch, ~224.00 kbps avg
Субтитры: отсутствуют

General
Complete name : C:UsersX666DesktopSCENEMy_Scene_Goes_Hollywood_DVDRip_DUB.avi
Format : AVI
Format/Info : Audio Video Interleave
File size : 1.45 GiB
Duration : 1h 10mn
Overall bit rate : 2 948 Kbps
Movie name : My Scene Goes Hollywood: The Movie [ripped by domin8]
Genre : Child's
Writing application : VirtualDubMod 1.5.10.3 | www.virtualdub-fr.org || (build 2550/release)
Original source form/Name : Cartoon
Video #0
ID : 0
Format : MPEG-4 Visual
Format profile : Advanced Simple@L5
Format settings, BVOP : Yes
Format settings, QPel : No
Format settings, GMC : No warppoints
Format settings, Matrix : Default (H.263)
Codec ID : XVID
Codec ID/Hint : XviD
Duration : 1h 10mn
Bit rate : 2 326 Kbps
Width : 720 pixels
Height : 432 pixels
Display aspect ratio : 1.667
Frame rate : 25.000 fps
Color space : YUV
Chroma subsampling : 4:2:0
Bit depth : 8 bits
Scan type : Progressive
Bits/(Pixel*Frame) : 0.299
Stream size : 1.14 GiB (79%)
Writing library : XviD 1.2.1 (UTC 2008-12-04)
Audio #1
ID : 1
Format : AC-3
Format/Info : Audio Coding 3
Mode extension : CM (complete main)
Codec ID : 2000
Duration : 1h 10mn
Bit rate mode : Constant
Bit rate : 384 Kbps
Channel(s) : 2 channels
Channel positions : Front: L R
Sampling rate : 48.0 KHz
Bit depth : 16 bits
Stream size : 194 MiB (13%)
Alignment : Split accross interleaves
Interleave, duration : 40 ms (1.00 video frame)
Interleave, preload duration : 500 ms
Title : rus
Audio #2
ID : 2
Format : AC-3
Format/Info : Audio Coding 3
Mode extension : CM (complete main)
Codec ID : 2000
Duration : 1h 10mn
Bit rate mode : Constant
Bit rate : 224 Kbps
Channel(s) : 2 channels
Channel positions : Front: L R
Sampling rate : 48.0 KHz
Bit depth : 16 bits
Stream size : 113 MiB (8%)
Alignment : Split accross interleaves
Interleave, duration : 40 ms (1.00 video frame)
Interleave, preload duration : 500 ms
Title : eng














Автор рипа: domin8



   Похожие торренты   Торрент   Размер 
В этой теме нет новых непрочитанных сообщений. Налетчики из Голливуда / Hollywood Flies (2005) DVDRip от Киномагия | P2

4 | 2

1.37 ГБ

В этой теме нет новых непрочитанных сообщений. Налетчики из Голливуда / Hollywood Flies (2005) DVDRip от Киномагия | P2

1 | 1

700.1 МБ

В этой теме нет новых непрочитанных сообщений. Сцены у моря / A Scene at the Sea (1991) DVDRip-AVC | Р

34 | 7

2.09 ГБ

В этой теме нет новых непрочитанных сообщений. Сцены у моря / A Scene at the Sea (1991) DVDRip от SergV

12 | 1

1.37 ГБ

В этой теме нет новых непрочитанных сообщений. Клерки: Потерянная сцена / Clerks: The Lost Scene (2004) DVDRip

7 | 1

109.13 МБ

В этой теме нет новых непрочитанных сообщений. ВВС Голливуда / Hollywood Air Force / Weekend Warriors (1986) DVDRip | P2

77 | 7

1.39 ГБ

В этой теме нет новых непрочитанных сообщений. VA - Scene Massive Groove EDM (2016) MP3

29 | 1

1.2 ГБ




Вы не можете начинать темы
Вы не можете отвечать на сообщения
Вы не можете редактировать свои сообщения
Вы не можете удалять свои сообщения
Вы не можете добавлять вложения

Перейти:  
Для Мосгорсуда, Роскомнадзора и рекламодателей: mosgorsud-torrent[собачка]yandex.ru
 Вход
ppkBB3cker v.2 © 2008-2014 @ PPK
[ Time : 39.190s | 14 Queries | GZIP : Off ]
CGP output time : 0.015s | 5 Queries | GZIP : Off

Торрент трекер RUTOR.IN, Не можете зайти на rutor.org? Какой новый адрес рутор? Какое зеркало рутор? Не работает rutor.org и зеркала? Тогда наш торрент специально для вас. Rutor.in неофициальное зеркало rutor. В случае если у Вас заблокирован rutor или вдруг Вы не можете на него зайти, то Вы без труда сможете скачать бесплатно и без рекламы последние новинки кино, игр, сериалов и прочего у нас, на Rutor.in. Не нужно использовать прокси, чтобы зайти на рутор, достаточно воспользоваться нашим ресурсом. Все новые фильмы, игры, сериалы, книги и музыка за 2013 и 2014 годы через торрент бесплатно. Скачивайте фильмы в хорошем качестве, игры для пк, xbox, playstation без регистрации. У нас вы найдете новые Зарубежные сериалы и Русские сериалы 2013, 2014, 2015 годов. Оставайтесь с нами, качайте любимые фильмы, игры, сериалы, книги и музыку.