img image001 image001 image001 image001 image001 image001 image001 image001 image001 image001 image001 image001 image001 image001 image001

Planets Sun Sun Sun
Статистика раздачи
Автор: Nickolas3434 | Размер: 1.43 ГБ | Добавлен: 20 фев 2015
Раздают: 83    Качают: 14
Скачать торрент
Скачать торрент
Описание торрента

СообщениеДобавлено: 20 фев 2015 

Оригинальное название:
Название:
Жанр: Мультфильм, боевик, приключения, история
Режиссёр: Саундарья Раджникант
Год: 2014
В ролях: Раджиникант, Дипика Падукон, Саратх Кумар, Джеки Шрофф, Нассер, Аадхи, Шобана, Рукмини, Шанмугха Раджан, Рамеш Ханна

.. Беллетризованная историческая сага - о смелом герое, прекрасной принцессе, благородстве, храбрости и конечно любви..
Страна: Индия
Продолжительность: 01:58:10
Перевод: Любительский многоголосый закадровый (Павел Морозов, Nastia, Юлия Семыкина)
Кодек: XviD (AVI)
Качество: WEB-DLRip
Видео: XviD, 1535 Кбит/с, 720x304
Звук: AC3, 2 ch, 192 Кбит/с
Субтитры: Отсутствуют



Общее
Полное имя : Кочадайян - легенда Kochadaiiyaan (2014) WEB-DLRipKochadayyan.Legenda.2014.WEB-DLRip.avi
Формат : AVI
Формат/Информация : Audio Video Interleave
Размер файла : 1,43 Гбайт
Продолжительность : 1 ч. 58 м.
Общий поток : 1736 Кбит/сек
Программа кодирования : Lavf51.12.1
Библиотека кодирования : VirtualDub build 34676/release
Видео
Идентификатор : 0
Формат : MPEG-4 Visual
Профиль формата : Simple@L3
Параметр BVOP формата : Нет
Параметр QPel формата : Нет
Параметр GMC формата : Без точки перехода
Параметр матрицы формата : Default (H.263)
Идентификатор кодека : XVID
Идентификатор кодека/Подсказка : XviD
Продолжительность : 1 ч. 58 м.
Битрейт : 1535 Кбит/сек
Ширина : 720 пикселей
Высота : 304 пикселя
Соотношение сторон : 2,35:1
Частота кадров : 24,000 кадра/сек
Цветовое пространство : YUV
Субдискретизация насыщенности : 4:2:0
Битовая глубина : 8 бит
Тип развёртки : Прогрессивная
Метод сжатия : С потерями
Бит/(Пиксели*Кадры) : 0.292
Размер потока : 1,27 Гбайт (88%)
Библиотека кодирования : XviD 64
Аудио
Идентификатор : 1
Формат : AC-3
Формат/Информация : Audio Coding 3
Расширение режима : CM (complete main)
Параметр Endianness формата : Big
Идентификатор кодека : 2000
Продолжительность : 1 ч. 58 м.
Вид битрейта : Постоянный
Битрейт : 192 Кбит/сек
Каналы : 2 канала
Расположение каналов : Front: L R
Частота : 48,0 КГц
Битовая глубина : 16 бит
Метод сжатия : С потерями
Размер потока : 162 Мбайт (11%)
Выравнивание : Соединение по промежуткам
Продолжительность промежутка : 42 мс. (1,00 видеокадр)
Время предзагрузки промежутка : 512 мс.






   Похожие торренты   Торрент   Размер 
В этой теме нет новых непрочитанных сообщений. Легенда / Кочадайян - легенда / Kochadaiiyaan (2014) WEB-DLRip | L

59 | 2

2.05 ГБ

В этой теме нет новых непрочитанных сообщений. Легенда о Костоломе / Легенда о Костяном Драконе / Легенда о Костобое / Legend of the Boneknapper Dragon (2010) BDRip от HQCLUB

20 | 33

451.83 МБ

В этой теме нет новых непрочитанных сообщений. Аватар: Легенда о Корре / The Legend of Korra [04x01 из 13 ] (2014) WEB-DLRip | LE-Production

40 | 5

408.25 МБ

В этой теме нет новых непрочитанных сообщений. Аватар: Легенда о Корре / The Legend of Korra [04x01-09 из 13] (2014) WEB-DLRip | LE-Production

641 | 60

3.59 ГБ

В этой теме нет новых непрочитанных сообщений. Аватар: Легенда о Корре / The Legend of Korra [04x01-11 из 13] (2014) WEB-DLRip | LE-Production

87 | 129

4.39 ГБ

В этой теме нет новых непрочитанных сообщений. Аватар: Легенда о Корре / The Legend of Korra [04x01-10 из 13] (2014) WEB-DLRip | LE-Production

115 | 114

3.99 ГБ

В этой теме нет новых непрочитанных сообщений. Аватар: Легенда о Корре / The Legend of Korra [04x01-08 из 13] (2014) WEB-DLRip | LE-Production

89 | 51

3.19 ГБ




Вы не можете начинать темы
Вы не можете отвечать на сообщения
Вы не можете редактировать свои сообщения
Вы не можете удалять свои сообщения
Вы не можете добавлять вложения

Перейти:  
Для Мосгорсуда, Роскомнадзора и рекламодателей: mosgorsud-torrent[собачка]yandex.ru
 Вход
ppkBB3cker v.2 © 2008-2014 @ PPK
[ Time : 0.039s | 16 Queries | GZIP : Off ]

cron