img image001 image001 image001 image001 image001 image001 image001 image001 image001 image001 image001 image001 image001 image001 image001

Planets Sun Sun Sun
Статистика раздачи
Автор: Nickolas3434 | Размер: 744.31 МБ | Добавлен: 22 фев 2015
Раздают: 424    Качают: 6
Скачать торрент
Скачать торрент
Описание торрента

СообщениеДобавлено: 22 фев 2015 

Информация о фильме
Название: Феи: Легенда о чудовище
Оригинальное название: Legend of the NeverBeast
Год выхода: 2014
Жанр: мультфильм, фэнтези, приключения, семейный
Режиссер: Стив Лотер
В ролях: Мэй Уитман, Джиннифер Гудвин, Розарио Доусон, Люси Лью, Томас Леннон, Рэйвен, Памела Адлон, Меган Хилти, Мелани Браун, Youlika Skafida
О фильме: Анимационная сказка расскажет удивительную историю о веселой и талантливой фее Фауне, которая убеждена в том, что о книге нельзя судить по ее обложке, впрочем, как и о животном по его клыкам, поэтому она дружит с таинственным существом громадных размеров из Нетландии по прозвищу Чудовище. В это время группа волшебных фей разведки не настолько уверены в этом страшном звере и намереваются захватить его прежде, чем он уничтожит их дома. Они хотят отправиться на поиски Чудовища. Фауна, чтобы спасти своего нового друга, остается лишь доказать всем, что он — существо доброе и не собирается вредить другим…

Страна: США
Студия: DisneyToon Studios, Prana Studios
Продолжительность: 01:16:14
Перевод: Дублированный (Чистый звук)
Файл
Кодек: x264
Качество: BDRip-AVC
Видео: MPEG-4 AVC, 1171 Кбит/с, 720x404
Звук: AC3, 2 ch, 192 Кбит/с
Субтитры: Нет
raw [info]: 720x404p 1:1 @ 24000/1001 fps (cfr)
x264 [info]: using SAR=1/1
x264 [info]: using cpu capabilities: MMX2 SSE2Fast SSSE3 SSE4.2 AVX
x264 [info]: profile High, level 4.1
x264 [info]: frame I:1112 Avg QP:15.66 size: 60290
x264 [info]: frame P:30092 Avg QP:19.10 size: 11259
x264 [info]: frame B:78477 Avg QP:20.74 size: 3362
x264 [info]: consecutive B-frames: 4.8% 5.0% 8.3% 54.1% 11.7% 12.4% 1.5% 1.4% 0.3% 0.5%
x264 [info]: mb I I16..4: 10.9% 52.5% 36.5%
x264 [info]: mb P I16..4: 1.3% 10.4% 2.7% P16..4: 30.8% 13.8% 14.1% 1.1% 0.5% skip:25.2%
x264 [info]: mb B I16..4: 0.2% 1.2% 0.4% B16..8: 24.3% 8.3% 3.1% direct: 4.2% skip:58.3% L0:38.2% L1:46.1% BI:15.7%
x264 [info]: 8x8 transform intra:67.9% inter:48.9%
x264 [info]: direct mvs spatial:94.8% temporal:5.2%
x264 [info]: coded y,uvDC,uvAC intra: 82.8% 82.0% 57.8% inter: 16.1% 14.1% 6.6%
x264 [info]: i16 v,h,dc,p: 40% 13% 16% 31%
x264 [info]: i8 v,h,dc,ddl,ddr,vr,hd,vl,hu: 13% 12% 9% 8% 10% 11% 12% 11% 14%
x264 [info]: i4 v,h,dc,ddl,ddr,vr,hd,vl,hu: 24% 7% 6% 7% 13% 12% 11% 9% 11%
x264 [info]: i8c dc,h,v,p: 42% 24% 18% 16%
x264 [info]: Weighted P-Frames: Y:8.1% UV:5.4%
x264 [info]: ref P L0: 58.8% 11.3% 13.3% 5.2% 3.4% 2.8% 2.1% 1.4% 1.3% 0.3% 0.0%
x264 [info]: ref B L0: 75.7% 10.7% 5.2% 3.1% 2.2% 1.7% 1.0% 0.4%
x264 [info]: ref B L1: 93.0% 7.0%
x264 [info]: kb/s:1171.16
x264 [total]: encoded 109681 frames, 14.65 fps, 1171.16 kb/s
Общее
Уникальный идентификатор : 176949292071733391948219728730513529558 (0x851F31AB8D0107D686512829FAE4DAD6)
Полное имя : D:ВидеоFei.Legenda.o.Chudovishe.2014.BDRip(AVC) by Vovan366(ExKinoRay).mkv
Формат : Matroska
Версия формата : Version 4 / Version 2
Размер файла : 744 Мбайт
Продолжительность : 1 ч. 16 м.
Общий поток : 1365 Кбит/сек
Название фильма : Fei.Legenda.o.Chudovishe.2014.BDRip(AVC) by Vovan366(ExKinoRay)
Дата кодирования : UTC 2015-02-21 02:09:38
Программа кодирования : mkvmerge v7.5.0 ('Glass Culture') 64bit built on Jan 4 2015 16:48:44
Библиотека кодирования : libebml v1.3.1 + libmatroska v1.4.2
DURATION : 01:16:14.688000000
NUMBER_OF_FRAMES : 142959
NUMBER_OF_BYTES : 109792512
_STATISTICS_WRITING_APP : mkvmerge v7.5.0 ('Glass Culture') 64bit built on Jan 4 2015 16:48:44
_STATISTICS_WRITING_DATE_UTC : 2015-02-21 02:09:38
_STATISTICS_TAGS : BPS DURATION NUMBER_OF_FRAMES NUMBER_OF_BYTES
Видео
Идентификатор : 1
Формат : AVC
Формат/Информация : Advanced Video Codec
Профиль формата : High@L4.1
Параметр CABAC формата : Да
Параметр ReFrames формата : 9 кадров
Идентификатор кодека : V_MPEG4/ISO/AVC
Продолжительность : 1 ч. 16 м.
Битрейт : 1171 Кбит/сек
Ширина : 720 пикселей
Высота : 404 пикселя
Соотношение сторон : 16:9
Режим частоты кадров : Постоянный
Частота кадров : 23,976 кадра/сек
Цветовое пространство : YUV
Субдискретизация насыщенности : 4:2:0
Битовая глубина : 8 бит
Тип развёртки : Прогрессивная
Бит/(Пиксели*Кадры) : 0.168
Размер потока : 625 Мбайт (84%)
Заголовок : by Vovan366(ExKinoRay)
Библиотека кодирования : x264 core 130 r2273 b3065e6
Настройки программы : cabac=1 / ref=9 / deblock=1:-3:-3 / analyse=0x3:0x133 / me=umh / subme=10 / psy=1 / psy_rd=1.00:0.15 / mixed_ref=1 / me_range=32 / chroma_me=1 / trellis=2 / 8x8dct=1 / cqm=0 / deadzone=21,11 / fast_pskip=0 / chroma_qp_offset=-3 / threads=6 / lookahead_threads=1 / sliced_threads=0 / nr=0 / decimate=0 / interlaced=0 / bluray_compat=0 / constrained_intra=0 / bframes=9 / b_pyramid=2 / b_adapt=2 / b_bias=0 / direct=3 / weightb=1 / open_gop=0 / weightp=2 / keyint=250 / keyint_min=23 / scenecut=40 / intra_refresh=0 / rc=2pass / mbtree=0 / bitrate=1171 / ratetol=1.0 / qcomp=0.60 / qpmin=0 / qpmax=69 / qpstep=4 / cplxblur=20.0 / qblur=0.5 / ip_ratio=1.40 / pb_ratio=1.30 / aq=1:1.00
Default : Да
Forced : Нет
Аудио
Идентификатор : 2
Формат : AC-3
Формат/Информация : Audio Coding 3
Расширение режима : CM (complete main)
Параметр Endianness формата : Big
Идентификатор кодека : A_AC3
Продолжительность : 1 ч. 16 м.
Вид битрейта : Постоянный
Битрейт : 192 Кбит/сек
Каналы : 2 канала
Расположение каналов : Front: L R
Частота : 48,0 КГц
Битовая глубина : 16 бит
Метод сжатия : С потерями
Размер потока : 105 Мбайт (14%)
Язык : Russian
Default : Да
Forced : Нет
Меню
00:00:00.000 : en:00:00:00.000
00:03:08.188 : en:00:03:08.188
00:10:55.071 : en:00:10:55.071
00:16:45.087 : en:00:16:45.087
00:20:26.684 : en:00:20:26.684
00:24:20.501 : en:00:24:20.501
00:30:58.732 : en:00:30:58.732
00:34:42.038 : en:00:34:42.038
00:38:09.245 : en:00:38:09.245
00:41:13.012 : en:00:41:13.012
00:44:39.468 : en:00:44:39.468
00:49:54.992 : en:00:49:54.992
00:53:05.766 : en:00:53:05.766
00:57:07.883 : en:00:57:07.883
01:02:54.688 : en:01:02:54.688
01:07:54.612 : en:01:07:54.612



Релиз от:
Rip by: Vovan366



   Похожие торренты   Торрент   Размер 
В этой теме нет новых непрочитанных сообщений. Феи: Легенда о чудовище / Legend of the NeverBeast (2014) BDRip-AVC от ExKinoRay | Чистый звук

7633 | 411

1.73 ГБ

В этой теме нет новых непрочитанных сообщений. Феи: Легенда о чудовище / Tinker Bell and the Legend of the NeverBeast (2014) BDRip-1080p | Чистый звук

1124 | 20

4.58 ГБ

В этой теме нет новых непрочитанных сообщений. Феи: Легенда о чудовище / Legend of the NeverBeast (2014) BDRip 720p от Leonardo and Scarabey | Чистый звук

1244 | 43

2.37 ГБ

В этой теме нет новых непрочитанных сообщений. Феи: Легенда о чудовище / Tinker Bell and the Legend of the NeverBeast (2014) BDRip от Stranik 2.0 | Чистый звук

334 | 18

701.72 МБ

В этой теме нет новых непрочитанных сообщений. Феи: Легенда о чудовище / Legend of the NeverBeast (2014) HDRip | Чистый звук

5298 | 78

1.37 ГБ

В этой теме нет новых непрочитанных сообщений. Феи: Легенда о чудовище / Tinker Bell and the Legend of the NeverBeast (2014) BDRemux-1080p | Чистый звук

116 | 3

20.87 ГБ

В этой теме нет новых непрочитанных сообщений. Феи: Легенда о чудовище / Legend of the NeverBeast (2014) BDRip 1080p от ExKinoRay | iTunes Russia

56 | 5

7.02 ГБ




Вы не можете начинать темы
Вы не можете отвечать на сообщения
Вы не можете редактировать свои сообщения
Вы не можете удалять свои сообщения
Вы не можете добавлять вложения

Перейти:  
Для Мосгорсуда, Роскомнадзора и рекламодателей: mosgorsud-torrent[собачка]yandex.ru
 Вход
ppkBB3cker v.2 © 2008-2014 @ PPK
[ Time : 0.021s | 15 Queries | GZIP : Off ]

Торрент трекер RUTOR.IN, Не можете зайти на rutor.org? Какой новый адрес рутор? Какое зеркало рутор? Не работает rutor.org и зеркала? Тогда наш торрент специально для вас. Rutor.in неофициальное зеркало rutor. В случае если у Вас заблокирован rutor или вдруг Вы не можете на него зайти, то Вы без труда сможете скачать бесплатно и без рекламы последние новинки кино, игр, сериалов и прочего у нас, на Rutor.in. Не нужно использовать прокси, чтобы зайти на рутор, достаточно воспользоваться нашим ресурсом. Все новые фильмы, игры, сериалы, книги и музыка за 2013 и 2014 годы через торрент бесплатно. Скачивайте фильмы в хорошем качестве, игры для пк, xbox, playstation без регистрации. У нас вы найдете новые Зарубежные сериалы и Русские сериалы 2013, 2014, 2015 годов. Оставайтесь с нами, качайте любимые фильмы, игры, сериалы, книги и музыку.