img image001 image001 image001 image001 image001 image001 image001 image001 image001 image001 image001 image001 image001 image001 image001

Planets Sun Sun Sun
Статистика раздачи
Автор: Nickolas3434 | Размер: 11.42 ГБ | Добавлен: 22 фев 2015
Раздают: 128    Качают: 58
Скачать торрент
Скачать торрент
Описание торрента

СообщениеДобавлено: 22 фев 2015 

С Приветом По Планетам / Вондер Тут И Там / Wander Over Yonder
Страна: США
Жанр: Мультсериал, приключения, комедия
Продолжительность: ~ 00:23:00 *21
Год выпуска: 2013
Перевод:
Профессиональный (дублированный) Т.К Disney [Невафильм]
Любительский Одноголосый закадровый [ЛанселаП]
Русские субтитры: нет
Режиссёр: Крейг Маккракен / Craig McCracken
Роли озвучивали: Джек Макбрейер, Эйприл Уинчелл, Кит Фергюсон, Том Кенни
Роли Дублировали: Андрей Лёвин, Регина Щукина, Дмитрий Стрелков, Вадим Романов, Андрей Пирог, Алексей Макрецкий и др.
Описание: В центре сюжета увлекательного мультсериала - космические приключения весельчака по имени Тут-и-Там и его верной подруги Сильвии. Перескакивая с планеты на планету, забавная парочка спешит всем на помощь, всячески подбадривая окружающих. Но самый страшный житель галактики - Лорд Злыдень - этим жутко недоволен.

Качество: WEB-DL 720p , 1080p
Формат: MKV
Видео:
AVC, 1920x1080 (16:9), 4848 Kbps 23.976 fps [1080p]
AVC, 1280x720 (16:9), 1327 Kbps 23.976 fps [720p]
Аудио #1: AC-3, 48.0 KHz, 2 ch, 192 Kbps, CBR (Russian) [DUB]
Аудио #2: AC-3, 48.0 KHz, 1 ch, 192 Kbps, CBR (Russian) [ЛанселаП]
Аудио #3: AAC LC, 48.0 KHz, 128 Kbps 2 ch (English)
Субтитры: English, Russian (Перевод Песен)
Размер 11,4 ГБ
Общее
Уникальный идентификатор : 194630701073866671528366828513388417657 (0x926C827086E2412FBD886528AFA05279)
Полное имя : C:UsersEsiRVideosготовоеS.Pr!vet0m.p0.Planetam.S01.WEB-DL.720-1080p.Deadmauvlad1080pS.Pr!vet0m.p0.Planetam.S01.WEB-DL.1080p.EP.#2.Deadmauvlad.mkv
Формат : Matroska
Версия формата : Version 4 / Version 2
Размер файла : 375 Мбайт
Продолжительность : 10 м.
Общий поток : 4792 Кбит/сек
Название фильма : Reliz *Deadmauvlad*
Дата кодирования : UTC 2015-02-19 07:56:32
Программа кодирования : mkvmerge v6.1.0 ('Old Devil') built on Mar 4 2013 09:10:42
Библиотека кодирования : libebml v1.3.0 + libmatroska v1.4.0
Видео
Идентификатор : 1
Формат : AVC
Формат/Информация : Advanced Video Codec
Профиль формата : High@L4.0
Параметр CABAC формата : Да
Параметр ReFrames формата : 4 кадра
Идентификатор кодека : V_MPEG4/ISO/AVC
Продолжительность : 10 м.
Ширина : 1920 пикселей
Высота : 1080 пикселей
Соотношение сторон : 16:9
Режим частоты кадров : Постоянный
Частота кадров : 23,976 кадра/сек
Цветовое пространство : YUV
Субдискретизация насыщенности : 4:2:0
Битовая глубина : 8 бит
Тип развёртки : Прогрессивная
Заголовок : S01E03 : The Picnic
Язык : English
Default : Да
Forced : Нет
Основные цвета : BT.709
Характеристики трансфера : BT.709
Коэффициенты матрицы : BT.709
Аудио #1
Идентификатор : 2
Формат : AC-3
Формат/Информация : Audio Coding 3
Расширение режима : CM (complete main)
Параметр Endianness формата : Big
Идентификатор кодека : A_AC3
Продолжительность : 10 м.
Вид битрейта : Постоянный
Битрейт : 192 Кбит/сек
Каналы : 2 канала
Расположение каналов : Front: L R
Частота : 48,0 КГц
Битовая глубина : 16 бит
Метод сжатия : С потерями
Размер потока : 15,0 Мбайт (4%)
Заголовок : DUB [Дисней]
Язык : Russian
Default : Да
Forced : Да
Аудио #2
Идентификатор : 3
Формат : AC-3
Формат/Информация : Audio Coding 3
Расширение режима : CM (complete main)
Параметр Endianness формата : Big
Идентификатор кодека : A_AC3
Продолжительность : 10 м.
Вид битрейта : Постоянный
Битрейт : 192 Кбит/сек
Каналы : 1 канал
Расположение каналов : Front: C
Частота : 48,0 КГц
Битовая глубина : 16 бит
Метод сжатия : С потерями
Задержка видео : 16 мс.
Размер потока : 15,0 Мбайт (4%)
Заголовок : [RUS] Lancelap
Язык : Russian
Default : Нет
Forced : Нет
Аудио #3
Идентификатор : 4
Формат : AAC
Формат/Информация : Advanced Audio Codec
Профиль формата : LC
Идентификатор кодека : A_AAC
Продолжительность : 10 м.
Каналы : 2 канала
Расположение каналов : Front: L R
Частота : 48,0 КГц
Метод сжатия : С потерями
Задержка видео : 16 мс.
Заголовок : [ENG] AAC 2.0
Язык : English
Default : Нет
Forced : Нет
Текст
Идентификатор : 5
Формат : UTF-8
Идентификатор кодека : S_TEXT/UTF8
Идентификатор кодека/Информация : UTF-8 Plain Text
Заголовок : [ENG SUB]
Язык : English
Default : Нет
Forced : Нет
Общее
Уникальный идентификатор : 227610524543124339046195168949233561719 (0xAB3C3146DCD987C39EB28B370818B077)
Полное имя : C:UsersEsiRVideosготовоеS.Pr!vet0m.p0.Planetam.S01.WEB-DL.720-1080p.Deadmauvlad720pS.Pr!vet0m.p0.Planetam.S01.WEB-DL.720p.EP.2.Deadmauvlad.mkv
Формат : Matroska
Версия формата : Version 4 / Version 2
Размер файла : 294 Мбайт
Продолжительность : 23 м.
Общий поток : 1775 Кбит/сек
Название фильма : Reliz ***Deadmauvlad***
Дата кодирования : UTC 2015-02-20 09:37:08
Программа кодирования : mkvmerge v6.1.0 ('Old Devil') built on Mar 4 2013 09:10:42
Библиотека кодирования : libebml v1.3.0 + libmatroska v1.4.0
DURATION : 00:22:36.387000000
NUMBER_OF_FRAMES : 399
NUMBER_OF_BYTES : 11039
_STATISTICS_WRITING_APP : mkvmerge v7.1.0 ('Good Love') 32bit built on Jul 27 2014 12:59:18
_STATISTICS_WRITING_DATE_UTC : 2014-08-31 17:14:19
_STATISTICS_TAGS : BPS DURATION NUMBER_OF_FRAMES NUMBER_OF_BYTES
Видео
Идентификатор : 1
Формат : AVC
Формат/Информация : Advanced Video Codec
Профиль формата : High@L4.2
Параметр CABAC формата : Да
Параметр ReFrames формата : 5 кадров
Идентификатор кодека : V_MPEG4/ISO/AVC
Продолжительность : 23 м.
Ширина : 1280 пикселей
Высота : 720 пикселей
Соотношение сторон : 16:9
Режим частоты кадров : Постоянный
Частота кадров : 23,976 кадра/сек
Цветовое пространство : YUV
Субдискретизация насыщенности : 4:2:0
Битовая глубина : 8 бит
Тип развёртки : Прогрессивная
Библиотека кодирования : x264 core 133 r2334 a3ac64b
Настройки программы : cabac=1 / ref=5 / deblock=1:0:0 / analyse=0x3:0x113 / me=umh / subme=8 / psy=1 / psy_rd=1.00:0.00 / mixed_ref=1 / me_range=16 / chroma_me=1 / trellis=1 / 8x8dct=1 / cqm=0 / deadzone=21,11 / fast_pskip=1 / chroma_qp_offset=-2 / threads=6 / lookahead_threads=1 / sliced_threads=0 / nr=0 / decimate=1 / interlaced=0 / bluray_compat=0 / constrained_intra=0 / bframes=3 / b_pyramid=2 / b_adapt=2 / b_bias=0 / direct=3 / weightb=1 / open_gop=0 / weightp=2 / keyint=240 / keyint_min=23 / scenecut=40 / intra_refresh=0 / rc_lookahead=50 / rc=crf / mbtree=1 / crf=20.0 / qcomp=0.60 / qpmin=0 / qpmax=69 / qpstep=4 / vbv_maxrate=31250 / vbv_bufsize=31250 / crf_max=0.0 / nal_hrd=none / ip_ratio=1.40 / aq=1:1.00
Default : Да
Forced : Нет
Коэффициенты матрицы : BT.709
Аудио #1
Идентификатор : 2
Формат : AC-3
Формат/Информация : Audio Coding 3
Расширение режима : CM (complete main)
Параметр Endianness формата : Big
Идентификатор кодека : A_AC3
Продолжительность : 23 м.
Вид битрейта : Постоянный
Битрейт : 192 Кбит/сек
Каналы : 2 канала
Расположение каналов : Front: L R
Частота : 48,0 КГц
Битовая глубина : 16 бит
Метод сжатия : С потерями
Размер потока : 31,7 Мбайт (11%)
Заголовок : DUB
Default : Нет
Forced : Нет
Аудио #2
Идентификатор : 3
Формат : AC-3
Формат/Информация : Audio Coding 3
Расширение режима : CM (complete main)
Параметр Endianness формата : Big
Идентификатор кодека : A_AC3
Продолжительность : 23 м.
Вид битрейта : Постоянный
Битрейт : 128 Кбит/сек
Каналы : 2 канала
Расположение каналов : Front: L R
Частота : 44,1 КГц
Битовая глубина : 16 бит
Метод сжатия : С потерями
Размер потока : 21,2 Мбайт (7%)
Заголовок : [ЛанселаП]
Язык : Russian
Default : Да
Forced : Нет
Аудио #3
Идентификатор : 4
Формат : AAC
Формат/Информация : Advanced Audio Codec
Профиль формата : LC
Идентификатор кодека : A_AAC
Продолжительность : 23 м.
Каналы : 2 канала
Расположение каналов : Front: L R
Частота : 48,0 КГц
Метод сжатия : С потерями
Язык : English
Default : Нет
Forced : Нет
Текст
Идентификатор : 5
Формат : UTF-8
Идентификатор кодека : S_TEXT/UTF8
Идентификатор кодека/Информация : UTF-8 Plain Text
Язык : English
Default : Нет
Forced : Нет


1x01 - Покоритель / Яйцо 1080p
1x02 - Пикник / Беглецы 1080p 720p
1x03 - Доброе Дело / Пленник 1080p
1x04 - Питомец 1080p
1x05 - Негодяй / Тролль 1080p
1x06 - Посылка / Шляпа 1080p
1x07 - Маленький Воин 1080p
1x08 - Охотники / Мяч 1080p
1x09 - Герой / Именинник 1080p
1x10 - Славный Малый / Часовая Бомба 1080p
**********
720p

**********
1x11 - Вечер Сюрпризов / Туристка
1x12 - День / Ночь
1x13 - Одинокая Планета / Мозговой Штурм
1x14 - Заядлый Тусoвщик / Ребёнoк
1x15 - Герoический Пoдвиг Вселeнского Масштабa / Пустотa
1x16 - Хaндра / Врaги
1x17 - Лoжь / Сиpота
1x18 - Ужин / Друзья
1x19 - Подарок 2: Одариваниe / Подaрок
1x20 - При Деле / Помощник
1x21 - Ковбой


ЦитатаКто-то писал:

Почему 1080 и 720 в одной раздаче ?
Ответ Причина в том что я не смог добыть все серии в 1080p т.к у меня нет инвайта на BTN а в свободном доспуте только эти серии если кто готов помочь собрать мульт отпишитесь в коментах...
Спасибо zzz666_31_rus за исходный DVB с которого был взят звук
Сведение звука Deadmauvlad Den4ik



   Похожие торренты   Торрент   Размер 
В этой теме нет новых непрочитанных сообщений. Вондер Тут И Там / С приветом по планетам / Wander Over Yonder [S01] (2014) WEB-DLRip от Deadmauvlad | D | Disney

689 | 209

4.16 ГБ

В этой теме нет новых непрочитанных сообщений. Вондер Тут И Там / С приветом по планетам / Wander Over Yonder [01x01-21 из 21] (2014) WEB-DLRip | L1

505 | 111

4.63 ГБ

В этой теме нет новых непрочитанных сообщений. OST - 2012 [Original Soundtrack] [Harald Kloser, Thomas Wander] (2009) MP3

1 | 1

146.73 МБ

В этой теме нет новых непрочитанных сообщений. С приветом, Козаностра (2010) SATRip

50 | 23

1.09 ГБ

В этой теме нет новых непрочитанных сообщений. Семён Крупник - С приветом, Сёма! (1998) MP3

2 | 14

92.34 МБ

В этой теме нет новых непрочитанных сообщений. С приветом, Козаностра (2010) SATRip от КинозалSAT

61 | 11

1.37 ГБ

В этой теме нет новых непрочитанных сообщений. Футурама В дикие зеленые дали / Futurama Into the Wild Green Yonder (2009) BDRip-AVC от RP4 CHG

5 | 5

701.59 МБ




Вы не можете начинать темы
Вы не можете отвечать на сообщения
Вы не можете редактировать свои сообщения
Вы не можете удалять свои сообщения
Вы не можете добавлять вложения

Перейти:  
Для Мосгорсуда, Роскомнадзора и рекламодателей: mosgorsud-torrent[собачка]yandex.ru
 Вход
ppkBB3cker v.2 © 2008-2014 @ PPK
[ Time : 0.025s | 18 Queries | GZIP : Off ]

Торрент трекер RUTOR.IN, Не можете зайти на rutor.org? Какой новый адрес рутор? Какое зеркало рутор? Не работает rutor.org и зеркала? Тогда наш торрент специально для вас. Rutor.in неофициальное зеркало rutor. В случае если у Вас заблокирован rutor или вдруг Вы не можете на него зайти, то Вы без труда сможете скачать бесплатно и без рекламы последние новинки кино, игр, сериалов и прочего у нас, на Rutor.in. Не нужно использовать прокси, чтобы зайти на рутор, достаточно воспользоваться нашим ресурсом. Все новые фильмы, игры, сериалы, книги и музыка за 2013 и 2014 годы через торрент бесплатно. Скачивайте фильмы в хорошем качестве, игры для пк, xbox, playstation без регистрации. У нас вы найдете новые Зарубежные сериалы и Русские сериалы 2013, 2014, 2015 годов. Оставайтесь с нами, качайте любимые фильмы, игры, сериалы, книги и музыку.