img image001 image001 image001 image001 image001 image001 image001 image001 image001 image001 image001 image001 image001 image001 image001

Planets Sun Sun Sun
Статистика раздачи
Автор: Nickolas3434 | Размер: 1.46 ГБ | Добавлен: 22 фев 2015
Раздают: 143    Качают: 3
Скачать торрент
Скачать торрент
Описание торрента

СообщениеДобавлено: 22 фев 2015 

Год выпуска: 2014
Страна: США
Жанр: мультфильм, комедия, приключения, семейный
Продолжительность: 01:32:19
Перевод: Дублированный
Режиссер: Эрик Дарнелл, Саймон Дж. Смит
В ролях: Том МакГрат, Крис Миллер, Кристофер Найтс, Бенедикт Камбербэтч, Петер Стормаре, Джон Малкович, Кен Жонг, Аннет Махендру
Описание: Четвёрка пингвинов-шпионов — Шкипер, Ковальски, Рико и Прапор — объединяется с командой «Северный ветер», помогающей беззащитным животным. Им предстоит остановить злобного осьминога, доктора Октавиуса Брайна, желающего уничтожить этот мир…

Видео кодек: MPEG-4 AVC
Качество: BDRip 720p
Параметры Видео: 1280x688, 23.976 fps; ~2 085 kbps avg
Параметры Звука: 48.0 KHz, AAC, ~165.00 kbps avg, 2ch
Формат: mp4
Релиз:


General
Complete name : E:Pingviny_Madagaskara.2014.D.BDRip.720p_KinoGadget.mp4
Format : MPEG-4
Format profile : Base Media
Codec ID : isom
File size : 1.46 GiB
Duration : 1h 32mn
Overall bit rate mode : Variable
Overall bit rate : 2 257 Kbps
Movie name : Пингвины Мадагаскара
Performer : Эрик Дарнелл, Саймон Дж. Смит
Genre : Adventure, Animation, Comedy
ContentType : Short Film
Recorded date : 2014
Encoded date : UTC 2015-02-20 17:04:55
Tagged date : UTC 2015-02-20 17:10:05
Cover : Yes
ContentRating : mpaa|PG|200|
LongDeion : Четвёрка пингвинов-шпионов — Шкипер, Ковальски, Рико и Прапор — объединяется с командой «Северный ветер», помогающей беззащитным животным. Им предстоит остановить злобного осьминога, доктора Октавиуса Брайна, желающего уничтожить этот мир…
HDVideo : Yes
Video
ID : 1
Format : AVC
Format/Info : Advanced Video Codec
Format profile : High@L4.1
Format settings, CABAC : Yes
Format settings, ReFrames : 9 frames
Codec ID : avc1
Codec ID/Info : Advanced Video Coding
Duration : 1h 32mn
Bit rate : 2 085 Kbps
Maximum bit rate : 11.5 Mbps
Width : 1 280 pixels
Height : 688 pixels
Display aspect ratio : 1.85:1
Frame rate mode : Constant
Frame rate : 23.976 fps
Color space : YUV
Chroma subsampling : 4:2:0
Bit depth : 8 bits
Scan type : Progressive
Bits/(Pixel*Frame) : 0.099
Stream size : 1.34 GiB (92%)
Writing library : x264 core 144 r2525 40bb568
Encoding settings : cabac=1 / ref=9 / deblock=1:-1:-1 / analyse=0x3:0x133 / me=umh / subme=11 / psy=1 / psy_rd=1.00:0.20 / mixed_ref=1 / me_range=32 / chroma_me=1 / trellis=2 / 8x8dct=1 / cqm=0 / deadzone=21,11 / fast_pskip=1 / chroma_qp_offset=-3 / threads=3 / lookahead_threads=1 / sliced_threads=0 / nr=0 / decimate=1 / interlaced=0 / bluray_compat=0 / constrained_intra=0 / bframes=16 / b_pyramid=2 / b_adapt=2 / b_bias=0 / direct=3 / weightb=1 / open_gop=0 / weightp=2 / keyint=240 / keyint_min=23 / scenecut=40 / intra_refresh=0 / rc_lookahead=60 / rc=crf / mbtree=1 / crf=21.0 / qcomp=0.60 / qpmin=0 / qpmax=69 / qpstep=4 / ip_ratio=1.40 / aq=1:1.50
Encoded date : UTC 2015-02-20 16:14:25
Tagged date : UTC 2015-02-20 17:05:34
Audio
ID : 2
Format : AAC
Format/Info : Advanced Audio Codec
Format profile : LC
Codec ID : 40
Duration : 1h 31mn
Duration_FirstFrame : 64ms
Bit rate mode : Variable
Bit rate : 165 Kbps
Maximum bit rate : 234 Kbps
Channel count : 2 channels
Channel positions : Front: L R
Sampling rate : 48.0 KHz
Compression mode : Lossy
Stream size : 108 MiB (7%)
Language : Russian
Tagged date : UTC 2015-02-20 17:05:34





   Похожие торренты   Торрент   Размер 
В этой теме нет новых непрочитанных сообщений. Пингвины из Мадагаскара: Операция С Новым годом / The Madagascar Penguins in a Christmas Caper (2005) BDRip-AVC | iPad

96 | 2

294.3 МБ

В этой теме нет новых непрочитанных сообщений. Пингвины Мадагаскара / Penguins of Madagascar (2014) BDRip 720p | Лицензия

329 | 29

5.2 ГБ

В этой теме нет новых непрочитанных сообщений. Пингвины Мадагаскара / Penguins of Madagascar (2014) BDRip 720p от NNNB | 60 fps

402 | 4

4.74 ГБ

В этой теме нет новых непрочитанных сообщений. Пингвины Мадагаскара / Penguins of Madagascar (2014) BDRip 720p от HELLYWOOD | Лицензия

475 | 3

4.37 ГБ

В этой теме нет новых непрочитанных сообщений. Пингвины Мадагаскара / Penguins of Madagascar (2014) BDRip 720p от Leonardo and Scarabey | iTunes

1132 | 56

2.84 ГБ

В этой теме нет новых непрочитанных сообщений. Пингвины Мадагаскара / Penguins of Madagascar (2014) BDRip 720p от Leonardo and Scarabey | Лицензия

228 | 13

2.88 ГБ

В этой теме нет новых непрочитанных сообщений. Пингвины Мадагаскара / Penguins of Madagascar (2014) WEB-DL 720p | iTunes

2254 | 127

3 ГБ




Вы не можете начинать темы
Вы не можете отвечать на сообщения
Вы не можете редактировать свои сообщения
Вы не можете удалять свои сообщения
Вы не можете добавлять вложения

Перейти:  
Для Мосгорсуда, Роскомнадзора и рекламодателей: mosgorsud-torrent[собачка]yandex.ru
 Вход
ppkBB3cker v.2 © 2008-2014 @ PPK
[ Time : 0.023s | 16 Queries | GZIP : Off ]

Торрент трекер RUTOR.IN, Не можете зайти на rutor.org? Какой новый адрес рутор? Какое зеркало рутор? Не работает rutor.org и зеркала? Тогда наш торрент специально для вас. Rutor.in неофициальное зеркало rutor. В случае если у Вас заблокирован rutor или вдруг Вы не можете на него зайти, то Вы без труда сможете скачать бесплатно и без рекламы последние новинки кино, игр, сериалов и прочего у нас, на Rutor.in. Не нужно использовать прокси, чтобы зайти на рутор, достаточно воспользоваться нашим ресурсом. Все новые фильмы, игры, сериалы, книги и музыка за 2013 и 2014 годы через торрент бесплатно. Скачивайте фильмы в хорошем качестве, игры для пк, xbox, playstation без регистрации. У нас вы найдете новые Зарубежные сериалы и Русские сериалы 2013, 2014, 2015 годов. Оставайтесь с нами, качайте любимые фильмы, игры, сериалы, книги и музыку.