img image001 image001 image001 image001 image001 image001 image001 image001 image001 image001 image001 image001 image001 image001 image001

Planets Sun Sun Sun
Статистика раздачи
Автор: Nickolas3434 | Размер: 2.75 ГБ | Добавлен: 25 фев 2015
Раздают: 146    Качают: 6
Скачать торрент
Скачать торрент
Описание торрента

СообщениеДобавлено: 25 фев 2015 

Информация о фильме
Название: Трио из Бельвилля
Оригинальное название: Les Triplettes de Belleville (Bellville rendez)
Год выхода: 2003
Жанр: Мультфильм, драма, комедия, приключения, музыка
Режиссер: Сильвен Шомэ
В ролях: Беатрис Бонифасси, Лина Бодро, Мишель Кочето, Жан-Клод Донда, Мари-Лу Готье, Чарльз Линтон, Мишель Робен, Моника Виега
О фильме: Чемпион — маленький мальчик, усыновленный своей бабушкой мадам Сузой. Мадам Суза замечает, что наиболее счастливым мальчик чувствует себя верхом на велосипеде, и поэтому настаивает на том, чтобы он самым серьезным образом тренировался. Проходят годы и, наконец, Чемпион становится достойным собственного имени. Он готов участвовать во всемирно известной гонке Тур-де-Франс. Но во время соревнования двое таинственных неизвестных в черном выкрадывают Чемпиона. Мадам Суза и ее верный пес Брюно должны его освободить. Во время поисков они оказываются за океаном в огромном мегаполисе Бельвилль и встречают известных «бельвилльских тройняшек» — трех эксцентричных звезд-певиц мюзик-холла 30-х годов. «Тройняшки» берут мадам Сузу и Брюно под свою опеку. Благодаря острому нюху Бруно храбрая пара вскоре нападает на след Чемпиона. Но удастся ли им расстроить дьявольские планы злобной французской мафии?

Страна: Канада, Франция, Великобритания, Бельгия
Студия: Belleville Cartoon Studio, Canal+, Telefilm Canada, BBC Television Centre
Продолжительность: 01:20:39
Перевод: Дублированный, профессиональный двухголосый, авторский одноголосый, украинский
Файл
Кодек: MPEG-4 AVC
Качество: BDRip-AVC
Видео: 2900 Кбит/с, 976х576, 23.976 кадр/с
Звук:
Аудио #1: Русский (AC3, 6 ch, 448 Кбит/с) / Дублированный
Аудио #2: Русский (AC3, 2 ch, 192 Кбит/с) / Профессиональный двухголосый (Ульпане Эльром)
Аудио #3: Русский (AC3, 6 ch, 448 Кбит/с) / Авторский одноголосый (Ю. Живов)
Аудио #4: Украинский (AC3, 6 ch, 448 Кбит/с) / Профессиональный многоголосый (Омікрон)
Аудио #5: Французский (AC3, 6 ch, 448 Кбит/с)
Субтитры: Русские, украинские, английские
Семпл
Общее
Уникальный идентификатор : 251466055651029504477316771230817677711 (0xBD2E99C4B11054FE91070C13B547718F)
Полное имя : H:1FilmsHРелизыTrio.iz.beivilla.2003.x264.BDRip.AVC.MediaClub.mkv
Формат : Matroska
Версия формата : Version 4 / Version 2
Размер файла : 2,75 Гбайт
Продолжительность : 1 ч. 20 м.
Общий поток : 4886 Кбит/сек
Название фильма : -= MediaClub =- rip by Lefevr
Дата кодирования : UTC 2015-02-19 22:04:31
Программа кодирования : mkvmerge v6.1.0 ('Old Devil') built on Mar 4 2013 09:10:42
Библиотека кодирования : libebml v1.3.0 + libmatroska v1.4.0
Видео
Идентификатор : 1
Формат : AVC
Формат/Информация : Advanced Video Codec
Профиль формата : High@L4.1
Параметр CABAC формата : Да
Параметр ReFrames формата : 9 кадров
Идентификатор кодека : V_MPEG4/ISO/AVC
Продолжительность : 1 ч. 20 м.
Битрейт : 2900 Кбит/сек
Ширина : 976 пикселей
Высота : 576 пикселей
Соотношение сторон : 1,694
Режим частоты кадров : Постоянный
Частота кадров : 23,976 кадра/сек
Цветовое пространство : YUV
Субдискретизация насыщенности : 4:2:0
Битовая глубина : 8 бит
Тип развёртки : Прогрессивная
Бит/(Пиксели*Кадры) : 0.215
Размер потока : 1,58 Гбайт (57%)
Заголовок : Trio.iz.beivilla.2003.x264.BDRip.AVC.MediaClub
Библиотека кодирования : x264 core 130 r2273 b3065e6
Настройки программы : cabac=1 / ref=9 / deblock=1:-2:-2 / analyse=0x3:0x133 / me=umh / subme=11 / psy=1 / psy_rd=0.90:0.05 / mixed_ref=1 / me_range=32 / chroma_me=1 / trellis=2 / 8x8dct=1 / cqm=0 / deadzone=21,11 / fast_pskip=0 / chroma_qp_offset=-3 / threads=6 / lookahead_threads=1 / sliced_threads=0 / nr=0 / decimate=0 / interlaced=0 / bluray_compat=0 / constrained_intra=0 / bframes=8 / b_pyramid=2 / b_adapt=2 / b_bias=0 / direct=3 / weightb=1 / open_gop=0 / weightp=2 / keyint=240 / keyint_min=23 / scenecut=40 / intra_refresh=0 / rc_lookahead=60 / rc=2pass / mbtree=1 / bitrate=2900 / ratetol=1.0 / qcomp=0.60 / qpmin=0 / qpmax=69 / qpstep=4 / cplxblur=20.0 / qblur=0.5 / ip_ratio=1.40 / aq=1:0.70
Язык : English
Default : Да
Forced : Да
Аудио #1
Идентификатор : 2
Формат : AC-3
Формат/Информация : Audio Coding 3
Расширение режима : CM (complete main)
Параметр Endianness формата : Big
Идентификатор кодека : A_AC3
Продолжительность : 1 ч. 20 м.
Вид битрейта : Постоянный
Битрейт : 448 Кбит/сек
Каналы : 6 каналов
Расположение каналов : Front: L C R, Side: L R, LFE
Частота : 48,0 КГц
Битовая глубина : 16 бит
Метод сжатия : С потерями
Размер потока : 258 Мбайт (9%)
Заголовок : TRACK_01_DUB_RUS
Язык : Russian
Default : Да
Forced : Да
Аудио #2
Идентификатор : 3
Формат : AC-3
Формат/Информация : Audio Coding 3
Расширение режима : CM (complete main)
Параметр Endianness формата : Big
Идентификатор кодека : A_AC3
Продолжительность : 1 ч. 20 м.
Вид битрейта : Постоянный
Битрейт : 192 Кбит/сек
Каналы : 2 канала
Расположение каналов : Front: L R
Частота : 48,0 КГц
Битовая глубина : 16 бит
Метод сжатия : С потерями
Размер потока : 111 Мбайт (4%)
Заголовок : TRACK_02_DVO_RUS
Язык : Russian
Default : Нет
Forced : Нет
Аудио #3
Идентификатор : 4
Формат : AC-3
Формат/Информация : Audio Coding 3
Расширение режима : CM (complete main)
Параметр Endianness формата : Big
Идентификатор кодека : A_AC3
Продолжительность : 1 ч. 20 м.
Вид битрейта : Постоянный
Битрейт : 448 Кбит/сек
Каналы : 6 каналов
Расположение каналов : Front: L C R, Side: L R, LFE
Частота : 48,0 КГц
Битовая глубина : 16 бит
Метод сжатия : С потерями
Размер потока : 258 Мбайт (9%)
Заголовок : TRACK_03_AVO_RUS_Zhivov
Язык : Russian
Default : Нет
Forced : Нет
Аудио #4
Идентификатор : 5
Формат : AC-3
Формат/Информация : Audio Coding 3
Расширение режима : CM (complete main)
Параметр Endianness формата : Big
Идентификатор кодека : A_AC3
Продолжительность : 1 ч. 20 м.
Вид битрейта : Постоянный
Битрейт : 448 Кбит/сек
Каналы : 6 каналов
Расположение каналов : Front: L C R, Side: L R, LFE
Частота : 48,0 КГц
Битовая глубина : 16 бит
Метод сжатия : С потерями
Размер потока : 258 Мбайт (9%)
Заголовок : TRACK_04_MVO_UKR_Омікрон
Язык : Ukrainian
Default : Нет
Forced : Нет
Аудио #5
Идентификатор : 6
Формат : AC-3
Формат/Информация : Audio Coding 3
Расширение режима : CM (complete main)
Параметр Endianness формата : Big
Идентификатор кодека : A_AC3
Продолжительность : 1 ч. 20 м.
Вид битрейта : Постоянный
Битрейт : 448 Кбит/сек
Каналы : 6 каналов
Расположение каналов : Front: L C R, Side: L R, LFE
Частота : 48,0 КГц
Битовая глубина : 16 бит
Метод сжатия : С потерями
Размер потока : 258 Мбайт (9%)
Заголовок : TRACK_05_ORIGINAL_FRE
Язык : French
Default : Нет
Forced : Нет
Текст #1
Идентификатор : 7
Формат : UTF-8
Идентификатор кодека : S_TEXT/UTF8
Идентификатор кодека/Информация : UTF-8 Plain Text
Заголовок : TEXT_01_SUB_RUS.srt
Язык : Russian
Default : Нет
Forced : Нет
Текст #2
Идентификатор : 8
Формат : UTF-8
Идентификатор кодека : S_TEXT/UTF8
Идентификатор кодека/Информация : UTF-8 Plain Text
Заголовок : TEXT_02_SUB_UKR.srt
Язык : Ukrainian
Default : Нет
Forced : Нет
Текст #3
Идентификатор : 9
Формат : UTF-8
Идентификатор кодека : S_TEXT/UTF8
Идентификатор кодека/Информация : UTF-8 Plain Text
Заголовок : TEXT_03_SUB_ENG.srt
Язык : English
Default : Нет
Forced : Нет
Меню
00:00:00.000 : en:00:00:00.000
00:03:42.972 : en:00:03:42.972
00:08:14.452 : en:00:08:14.452
00:12:17.611 : en:00:12:17.611
00:20:15.797 : en:00:20:15.797
00:29:02.991 : en:00:29:02.991
00:33:48.693 : en:00:33:48.693
00:38:02.571 : en:00:38:02.571
00:40:56.454 : en:00:40:56.454
00:48:19.521 : en:00:48:19.521
00:52:15.799 : en:00:52:15.799
00:58:13.156 : en:00:58:13.156
01:01:25.973 : en:01:01:25.973
01:05:41.604 : en:01:05:41.604
01:09:00.970 : en:01:09:00.970
01:14:32.259 : en:01:14:32.259
...last pass...
x264.exe: --pass 2 --bitrate 2900 --preset veryslow --profile high --level 4.1 --ref 9 --aq-strength 0.7 --deblock -2:-2 --merange 32 --no-fast-pskip --no-dct-decimate --psy-rd 0.90:0.05 --subme 11 --keyint 240 --sar 1:1 --stats "E:1Films EРелизыBellville rendez11111.log" --output "E:1Films EРелизыBellville rendez11111.mkv" "F:Temp\0147.avs"
avs [info]: 976x576p 1:1 @ 2500000/104271 fps (cfr)
x264 [info]: using SAR=1/1
x264 [info]: using cpu capabilities: MMX2 SSE2Fast SSSE3 SSE4.2 AVX
x264 [info]: profile High, level 4.1
x264 [info]: frame I:1158 Avg QP:12.82 size:149263
x264 [info]: frame P:30981 Avg QP:17.10 size: 31694
x264 [info]: frame B:83901 Avg QP:20.98 size: 7142
x264 [info]: consecutive B-frames: 3.3% 5.1% 9.5% 57.7% 11.3% 8.2% 2.4% 1.5% 1.0%
x264 [info]: mb I I16..4: 17.1% 33.5% 49.5%
x264 [info]: mb P I16..4: 1.0% 3.9% 2.8% P16..4: 30.8% 23.8% 13.9% 4.2% 1.1% skip:18.7%
x264 [info]: mb B I16..4: 0.2% 0.7% 0.4% B16..8: 25.8% 10.3% 2.6% direct: 3.3% skip:56.7% L0:43.1% L1:48.3% BI: 8.5%
x264 [info]: 8x8 transform intra:47.6% inter:36.1%
x264 [info]: direct mvs spatial:97.3% temporal:2.7%
x264 [info]: coded y,uvDC,uvAC intra: 80.2% 66.0% 51.9% inter: 18.6% 16.2% 11.0%
x264 [info]: i16 v,h,dc,p: 49% 12% 17% 21%
x264 [info]: i8 v,h,dc,ddl,ddr,vr,hd,vl,hu: 11% 9% 13% 10% 12% 10% 11% 12% 13%
x264 [info]: i4 v,h,dc,ddl,ddr,vr,hd,vl,hu: 15% 11% 9% 9% 12% 11% 11% 10% 12%
x264 [info]: i8c dc,h,v,p: 38% 34% 20% 8%
x264 [info]: Weighted P-Frames: Y:6.6% UV:2.4%
x264 [info]: ref P L0: 52.4% 5.2% 15.9% 6.9% 5.1% 4.2% 3.8% 2.9% 3.1% 0.6% 0.1%
x264 [info]: ref B L0: 67.6% 11.4% 7.2% 4.4% 3.8% 2.8% 1.8% 0.9%
x264 [info]: ref B L1: 91.6% 8.4%
x264 [info]: kb/s:2899.27
x264 [total]: encoded 116040 frames, 8.92 fps, 2899.27 kb/s



Релиз от: | Автор рипа:



   Похожие торренты   Торрент   Размер 
В этой теме нет новых непрочитанных сообщений. Трио из Бельвилля / Les triplettes de Belleville (2003) BDRip

1 | 1

1.71 ГБ

В этой теме нет новых непрочитанных сообщений. Трио из Бельвилля / Les triplettes de Belleville (2003) BDRip от HQCLUB

24 | 3

1.45 ГБ

В этой теме нет новых непрочитанных сообщений. Трио из Бельвилля / Les triplettes de Belleville (2003) BDRip 1080p от NNNB

44 | 6

3.5 ГБ

В этой теме нет новых непрочитанных сообщений. Трио из Бельвилля / Triplettes de Belleville, Les (2003) HDRip от HQ-ViDEO

28 | 2

1.46 ГБ

В этой теме нет новых непрочитанных сообщений. Трио из Бельвилля / Les triplettes de Belleville (2003) HDTV 720p от PskovLine

1 | 3

3.22 ГБ

В этой теме нет новых непрочитанных сообщений. Трио Современной Джазовой Музыки (Ганелин трио) - Джазовые Импровизации (19....

44 | 1

93.69 МБ

В этой теме нет новых непрочитанных сообщений. Трио (2003) DVDRip-AVC

82 | 4

1.78 ГБ




Вы не можете начинать темы
Вы не можете отвечать на сообщения
Вы не можете редактировать свои сообщения
Вы не можете удалять свои сообщения
Вы не можете добавлять вложения

Перейти:  
Для Мосгорсуда, Роскомнадзора и рекламодателей: mosgorsud-torrent[собачка]yandex.ru
 Вход
ppkBB3cker v.2 © 2008-2014 @ PPK
[ Time : 0.038s | 18 Queries | GZIP : Off ]

Торрент трекер RUTOR.IN, Не можете зайти на rutor.org? Какой новый адрес рутор? Какое зеркало рутор? Не работает rutor.org и зеркала? Тогда наш торрент специально для вас. Rutor.in неофициальное зеркало rutor. В случае если у Вас заблокирован rutor или вдруг Вы не можете на него зайти, то Вы без труда сможете скачать бесплатно и без рекламы последние новинки кино, игр, сериалов и прочего у нас, на Rutor.in. Не нужно использовать прокси, чтобы зайти на рутор, достаточно воспользоваться нашим ресурсом. Все новые фильмы, игры, сериалы, книги и музыка за 2013 и 2014 годы через торрент бесплатно. Скачивайте фильмы в хорошем качестве, игры для пк, xbox, playstation без регистрации. У нас вы найдете новые Зарубежные сериалы и Русские сериалы 2013, 2014, 2015 годов. Оставайтесь с нами, качайте любимые фильмы, игры, сериалы, книги и музыку.
cron