img image001 image001 image001 image001 image001 image001 image001 image001 image001 image001 image001 image001 image001 image001 image001

Planets Sun Sun Sun
Статистика раздачи
Автор: Nickolas3434 | Размер: 701.72 МБ | Добавлен: 25 фев 2015
Раздают: 334    Качают: 18
Скачать торрент
Скачать торрент
Описание торрента

СообщениеДобавлено: 25 фев 2015 


Информация о фильме
Название : Феи: Легенда о чудовище
Оригинальное название : Tinker Bell and the Legend of the NeverBeast
Год выхода : 2014
Жанр : мультфильм, фэнтези, приключения, семейный
Режиссер : Стив Лотер
Роли озвучивали : Мэй Уитман, Джиннифер Гудвин, Розарио Доусон, Люси Лью, Томас Леннон, Рэйвен, Памела Адлон, Меган Хилти, Мелани Браун
Роли дублировали : Анна Бегунова, Екатерина Семенова, Ирина Слуцкая, Ольга Арнтгольц, Елена Великанова

Описание : Анимационная сказка расскажет удивительную историю о веселой и талантливой фее Фауне, которая убеждена в том, что о книге нельзя судить по ее обложке, впрочем, как и о животном по его клыкам, поэтому она дружит с таинственным существом громадных размеров из Нетландии по прозвищу Чудовище.
В это время группа волшебных фей разведки не настолько уверены в этом страшном звере и намереваются захватить его прежде, чем он уничтожит их дома. Они хотят отправиться на поиски Чудовища. Фауна, чтобы спасти своего нового друга, остается лишь доказать всем, что он — существо доброе и не собирается вредить другим…
Премьера (мир): 12 декабря 2014
Премьера (РФ): 18 декабря 2014
Релиз на DVD: 31 марта 2015
Релиз на Blu-Ray: 31 марта 2015
Страна : США
Производство : DisneyToon Studios, Prana Studios
Продолжительность : 01:16:14
Перевод : Профессиональный (полное дублирование) Чистый звук
Автор рипа и релиза :
Файл
Формат видео : AVI
Качество : BDRip (Исходник - BDRemux)
Видео : XVID, 720x400 (16:9), 23.976 fps, 1149 Kbps
Аудио : Русский, AC3, 128 Кбит/с, 48.0 Hz, 2 ch
Субтитры : нет


General
Complete name : E:/Torrent_2/Tinker Bell and the Legend of the NeverBeast (2014, XviD BDRip, RUS) [Stranik 2.0].avi
Format : AVI
Format/Info : Audio Video Interleave
File size : 702 MiB
Duration : 1h 16mn
Overall bit rate : 1 287 Kbps
Writing application : VirtualDubMod 1.5.10.3 (build 2550/release)
Writing library : VirtualDubMod build 2550/release
Video #0
ID : 0
Format : MPEG-4 Visual
Format profile : Advanced Simple@L5
Format settings, BVOP : 2
Format settings, QPel : No
Format settings, GMC : No warppoints
Format settings, Matrix : Default (H.263)
Codec ID : XVID
Codec ID/Hint : XviD
Duration : 1h 16mn
Bit rate : 1 149 Kbps
Width : 720 pixels
Height : 400 pixels
Display aspect ratio : 16:9
Frame rate : 23.976 fps
Color space : YUV
Chroma subsampling : 4:2:0
Bit depth : 8 bits
Scan type : Progressive
Compression mode : Lossy
Bits/(Pixel*Frame) : 0.166
Stream size : 627 MiB (89%)
Writing library : XviD 1.2.1 (UTC 2008-12-04)
Audio #1
ID : 1
Format : AC-3
Format/Info : Audio Coding 3
Mode extension : CM (complete main)
Format settings, Endianness : Big
Codec ID : 2000
Duration : 1h 16mn
Bit rate mode : Constant
Bit rate : 128 Kbps
Channel(s) : 2 channels
Channel positions : Front: L R
Sampling rate : 48.0 KHz
Bit depth : 16 bits
Compression mode : Lossy
Stream size : 69.8 MiB (10%)
Alignment : Split accross interleaves
Interleave, duration : 42 ms (1.00 video frame)
Interleave, preload duration : 500 ms

Моя максимальная скорость отдачи 100КБ/c




   Похожие торренты   Торрент   Размер 
В этой теме нет новых непрочитанных сообщений. Феи: Легенда о чудовище / Tinker Bell and the Legend of the NeverBeast (2014) BDRip-1080p | Чистый звук

1124 | 20

4.58 ГБ

В этой теме нет новых непрочитанных сообщений. Феи: Легенда о чудовище / Tinker Bell and the Legend of the NeverBeast (2014) BDRemux-1080p | Чистый звук

116 | 3

20.87 ГБ

В этой теме нет новых непрочитанных сообщений. Феи: Легенда о чудовище / Tinker Bell and the Legend of the NeverBeast (2014) HDRip-720p | Трейлер

43 | 6

46.95 МБ

В этой теме нет новых непрочитанных сообщений. Феи: Легенда о чудовище / Tinker Bell and the Legend of the NeverBeast (2014) HDTVRip 1080p от Ash61 | 3D-Video | halfSBS

251 | 37

7.59 ГБ

В этой теме нет новых непрочитанных сообщений. Феи: Легенда о чудовище / Legend of the NeverBeast (2014) BDRip-AVC от ExKinoRay | Чистый звук

7633 | 411

1.73 ГБ

В этой теме нет новых непрочитанных сообщений. Феи: Легенда о чудовище / Legend of the NeverBeast (2014) BDRip-AVC от ExKinoRay | Чистый звук

424 | 6

744.31 МБ

В этой теме нет новых непрочитанных сообщений. Феи: Легенда о чудовище / Legend of the NeverBeast (2014) BDRip 720p от Leonardo and Scarabey | Чистый звук

1244 | 43

2.37 ГБ




Вы не можете начинать темы
Вы не можете отвечать на сообщения
Вы не можете редактировать свои сообщения
Вы не можете удалять свои сообщения
Вы не можете добавлять вложения

Перейти:  
Для Мосгорсуда, Роскомнадзора и рекламодателей: mosgorsud-torrent[собачка]yandex.ru
 Вход
ppkBB3cker v.2 © 2008-2014 @ PPK
[ Time : 0.029s | 16 Queries | GZIP : Off ]

Торрент трекер RUTOR.IN, Не можете зайти на rutor.org? Какой новый адрес рутор? Какое зеркало рутор? Не работает rutor.org и зеркала? Тогда наш торрент специально для вас. Rutor.in неофициальное зеркало rutor. В случае если у Вас заблокирован rutor или вдруг Вы не можете на него зайти, то Вы без труда сможете скачать бесплатно и без рекламы последние новинки кино, игр, сериалов и прочего у нас, на Rutor.in. Не нужно использовать прокси, чтобы зайти на рутор, достаточно воспользоваться нашим ресурсом. Все новые фильмы, игры, сериалы, книги и музыка за 2013 и 2014 годы через торрент бесплатно. Скачивайте фильмы в хорошем качестве, игры для пк, xbox, playstation без регистрации. У нас вы найдете новые Зарубежные сериалы и Русские сериалы 2013, 2014, 2015 годов. Оставайтесь с нами, качайте любимые фильмы, игры, сериалы, книги и музыку.