img image001 image001 image001 image001 image001 image001 image001 image001 image001 image001 image001 image001 image001 image001 image001

Planets Sun Sun Sun
Статистика раздачи
Автор: Nickolas3434 | Размер: 1.13 ГБ | Добавлен: 25 фев 2015
Раздают: 434    Качают: 19
Скачать торрент
Скачать торрент
Описание торрента

СообщениеДобавлено: 25 фев 2015 

Информация о фильме
Название: Три богатыря: Ход конем
Год выхода: 2014
Жанр: мультфильм, комедия, приключения, фэнтези
Режиссер: Константин Феоктистов
В ролях: Сергей Маковецкий, Дмитрий Высоцкий, Дмитрий Нагиев, Олег Куликович, Валерий Соловьев, Дмитрий Быковский-Ромашов, Гоша Куценко, Наргиз Закирова, Анатолий Петров, Лия Медведева
О фильме: Придворный конь Гай Юлий Цезарь на свою беду подслушивает разговор бояр и узнает о заговоре против князя. Что же делать? Защитить-то князя некому! Богатыри далеко — ловят разбойника Потаню, Горыныч в отпуске, войско на учениях… Но если плохие парни собираются захватить мир, то кому-то же надо его спасти? Кто же он, настоящий герой, который придет на помощь? Конечно, конь Юлий! Настоящий стратег и «великий комбинатор». Он непременно всех спасет, а если не спасет, то хотя бы постарается. Главное, чтобы операция по спасению мира не обернулась полной катастрофой.

Страна: Россия
Студия: Кинокомпания CTB, Анимационная студия Мельница
Продолжительность: 01:14:42
Перевод: Оригинальный
Файл
Качество: BDRip (AVC)
Видео: MPEG-4 AVC, 1722 Кбит/с, 1024x554, 24 кадр/с
Аудио: AC3, 6 ch, 448 Кбит/с
Язык: Русский
General
Unique ID : 241266931935716846155521869904725940356 (0xB58252253A2FE556A609090244741884)
Complete name : C:Tri.bogatyria.Hod.konem.2014.O.BDRip.AVC.ExKinoRay.mkv
Format : Matroska
Format version : Version 4 / Version 2
File size : 1.13 GiB
Duration : 1h 14mn
Overall bit rate : 2 169 Kbps
Movie name : Tri bogatyria.Hod konem 2014 from ExKinoRay
Encoded date : UTC 2015-02-24 05:14:38
Writing application : mkvmerge v6.6.0 ('The Edge Of The In Between') built on Dec 1 2013 17:55:00
Writing library : libebml v1.3.0 + libmatroska v1.4.1
Video
ID : 1
Format : AVC
Format/Info : Advanced Video Codec
Format profile : High@L4.1
Format settings, CABAC : Yes
Format settings, ReFrames : 9 frames
Codec ID : V_MPEG4/ISO/AVC
Duration : 1h 14mn
Bit rate : 1 722 Kbps
Width : 1 024 pixels
Height : 554 pixels
Display aspect ratio : 1.85:1
Frame rate mode : Constant
Frame rate : 24.000 fps
Color space : YUV
Chroma subsampling : 4:2:0
Bit depth : 8 bits
Scan type : Progressive
Bits/(Pixel*Frame) : 0.126
Stream size : 896 MiB (77%)
Title : Enigma
Writing library : x264 core 133 r2334 a3ac64b
Encoding settings : cabac=1 / ref=9 / deblock=1:-2:-2 / analyse=0x3:0x113 / me=umh / subme=10 / psy=1 / psy_rd=1.05:0.15 / mixed_ref=1 / me_range=32 / chroma_me=1 / trellis=2 / 8x8dct=1 / cqm=0 / deadzone=21,11 / fast_pskip=0 / chroma_qp_offset=-3 / threads=12 / lookahead_threads=2 / sliced_threads=0 / nr=0 / decimate=0 / interlaced=0 / bluray_compat=0 / constrained_intra=0 / bframes=9 / b_pyramid=2 / b_adapt=2 / b_bias=0 / direct=3 / weightb=1 / open_gop=0 / weightp=2 / keyint=240 / keyint_min=24 / scenecut=40 / intra_refresh=0 / rc=2pass / mbtree=0 / bitrate=1722 / ratetol=1.0 / qcomp=0.60 / qpmin=0 / qpmax=51 / qpstep=4 / cplxblur=20.0 / qblur=0.5 / ip_ratio=1.40 / pb_ratio=1.30 / aq=1:1.00
Language : English
Default : Yes
Forced : No
Color primaries : BT.709
Transfer characteristics : BT.709
Matrix coefficients : BT.709
Audio
ID : 2
Format : AC-3
Format/Info : Audio Coding 3
Mode extension : CM (complete main)
Format settings, Endianness : Big
Codec ID : A_AC3
Duration : 1h 14mn
Bit rate mode : Constant
Bit rate : 448 Kbps
Channel(s) : 6 channels
Channel positions : Front: L C R, Side: L R, LFE
Sampling rate : 48.0 KHz
Bit depth : 16 bits
Compression mode : Lossy
Stream size : 239 MiB (21%)
Language : Russian
Default : Yes
Forced : No
Menu #1
00:00:00.000 : ru:Chapter 1
00:09:15.916 : ru:Chapter 2
00:18:48.000 : ru:Chapter 3
00:27:35.750 : ru:Chapter 4
00:37:23.791 : ru:Chapter 5
00:47:10.083 : ru:Chapter 6
00:54:14.791 : ru:Chapter 7
01:03:36.416 : ru:Chapter 8
Menu #2
00:00:00.000 : ru:Chapter 1
00:09:15.916 : ru:Chapter 2
00:18:48.000 : ru:Chapter 3
00:27:35.750 : ru:Chapter 4
00:37:23.791 : ru:Chapter 5
00:47:10.083 : ru:Chapter 6
00:54:14.791 : ru:Chapter 7
01:03:36.416 : ru:Chapter 8





Релиз от:
Автор релиза:



   Похожие торренты   Торрент   Размер 
В этой теме нет новых непрочитанных сообщений. Три богатыря: Ход конем (2014) BDRip от MediaClub | D | Лицензия

611 | 45

743.96 МБ

В этой теме нет новых непрочитанных сообщений. Три богатыря: Ход конем (2014) BDRip от Twi7ter | Лицензия

10558 | 499

1.45 ГБ

В этой теме нет новых непрочитанных сообщений. Три богатыря: Ход конем (2014) BDRip 1080p | 60 fps | Лицензия

44 | 23

22.88 ГБ

В этой теме нет новых непрочитанных сообщений. Три богатыря: Ход конем (2014) BDRip 720p от HDClub | Лицензия

1592 | 76

3.85 ГБ

В этой теме нет новых непрочитанных сообщений. Три богатыря: Ход конем (2014) BDRip 1080p от HDClub | Лицензия

1042 | 43

7.02 ГБ

В этой теме нет новых непрочитанных сообщений. Три богатыря: Ход конем (2014) BDRip 720p от Leonardo and Scarabey | Лицензия

1469 | 52

1.67 ГБ

В этой теме нет новых непрочитанных сообщений. Три богатыря: Ход конем (2014) WEB-DLRip-AVC от ExKinoRay | iTunes Russia

3051 | 1217

1.24 ГБ




Вы не можете начинать темы
Вы не можете отвечать на сообщения
Вы не можете редактировать свои сообщения
Вы не можете удалять свои сообщения
Вы не можете добавлять вложения

Перейти:  
Для Мосгорсуда, Роскомнадзора и рекламодателей: mosgorsud-torrent[собачка]yandex.ru
 Вход
ppkBB3cker v.2 © 2008-2014 @ PPK
[ Time : 1.695s | 16 Queries | GZIP : Off ]

Торрент трекер RUTOR.IN, Не можете зайти на rutor.org? Какой новый адрес рутор? Какое зеркало рутор? Не работает rutor.org и зеркала? Тогда наш торрент специально для вас. Rutor.in неофициальное зеркало rutor. В случае если у Вас заблокирован rutor или вдруг Вы не можете на него зайти, то Вы без труда сможете скачать бесплатно и без рекламы последние новинки кино, игр, сериалов и прочего у нас, на Rutor.in. Не нужно использовать прокси, чтобы зайти на рутор, достаточно воспользоваться нашим ресурсом. Все новые фильмы, игры, сериалы, книги и музыка за 2013 и 2014 годы через торрент бесплатно. Скачивайте фильмы в хорошем качестве, игры для пк, xbox, playstation без регистрации. У нас вы найдете новые Зарубежные сериалы и Русские сериалы 2013, 2014, 2015 годов. Оставайтесь с нами, качайте любимые фильмы, игры, сериалы, книги и музыку.
cron