img image001 image001 image001 image001 image001 image001 image001 image001 image001 image001 image001 image001 image001 image001 image001

Planets Sun Sun Sun
Статистика раздачи
Автор: Nickolas3434 | Размер: 2.19 ГБ | Добавлен: 26 фев 2015
Раздают: 2706    Качают: 125
Скачать торрент
Скачать торрент
Описание торрента

СообщениеДобавлено: 26 фев 2015 

Информация о фильме
Название: Три богатыря: Ход конем
Год выхода: 2014
Жанр: мультфильм, комедия, приключения, фэнтези
Режиссер: Константин Феоктистов
В ролях: Сергей Маковецкий, Дмитрий Высоцкий, Дмитрий Нагиев, Олег Куликович, Валерий Соловьев, Дмитрий Быковский-Ромашов, Гоша Куценко, Наргиз Закирова, Анатолий Петров, Лия Медведева
О фильме: Придворный конь Гай Юлий Цезарь на свою беду подслушивает разговор бояр и узнает о заговоре против князя. Что же делать? Защитить-то князя некому! Богатыри далеко — ловят разбойника Потаню, Горыныч в отпуске, войско на учениях… Но если плохие парни собираются захватить мир, то кому-то же надо его спасти? Кто же он, настоящий герой, который придет на помощь? Конечно, конь Юлий! Настоящий стратег и «великий комбинатор». Он непременно всех спасет, а если не спасет, то хотя бы постарается. Главное, чтобы операция по спасению мира не обернулась полной катастрофой.

Выпущено: Кинокомпания CTB
Продолжительность: 01:14:43
Перевод: Оригинал (лицензия)
Файл
Кодек: x264
Качество: BDRip (источник: Blu-ray Disc)
Видео: 1920x1040 (1,85:1), 24 fps, 3740 kbps
Аудио: AC-3, 6 ch, 448 kbps
Скачать: сэмпл
Скриншоты

Общее
Уникальный идентификатор : 220277151638098464537957620642485783790 (0xA5B7D613DA0E738FA32AEFE3C5B64CEE)
Полное имя : Tri.bogatyrya.Hod.konem.2014.BDRip.1080p.Rus.mkv
Формат : Matroska
Версия формата : Version 2
Размер файла : 2,19 Гбайт
Продолжительность : 1 ч. 14 м.
Общий поток : 4188 Кбит/сек
Название фильма : Три богатыря: Ход конем (2014)
Дата кодирования : UTC 2015-02-24 16:37:22
Программа кодирования : mkvmerge v5.8.0 ('No Sleep / Pillow') built on Sep 2 2012 15:37:04
Библиотека кодирования : libebml v1.2.3 + libmatroska v1.3.0
Видео
Идентификатор : 1
Формат : AVC
Формат/Информация : Advanced Video Codec
Профиль формата : High@L4.1
Параметр CABAC формата : Да
Параметр ReFrames формата : 4 кадра
Идентификатор кодека : V_MPEG4/ISO/AVC
Продолжительность : 1 ч. 14 м.
Битрейт : 3739 Кбит/сек
Ширина : 1920 пикселей
Высота : 1040 пикселей
Соотношение сторон : 1,85:1
Режим частоты кадров : Постоянный
Частота кадров : 24,000 кадра/сек
Цветовое пространство : YUV
Субдискретизация насыщенности : 4:2:0
Битовая глубина : 8 бит
Тип развёртки : Прогрессивная
Бит/(Пиксели*Кадры) : 0.078
Размер потока : 1,91 Гбайт (87%)
Заголовок : Release by AlexKa
Библиотека кодирования : x264 core 144 r2525 40bb568
Настройки программы : cabac=1 / ref=4 / deblock=1:0:0 / analyse=0x3:0x133 / me=umh / subme=11 / psy=1 / psy_rd=1.00:0.00 / mixed_ref=1 / me_range=32 / chroma_me=1 / trellis=2 / 8x8dct=1 / cqm=0 / deadzone=21,11 / fast_pskip=0 / chroma_qp_offset=-2 / threads=12 / lookahead_threads=2 / sliced_threads=0 / nr=0 / decimate=0 / interlaced=0 / bluray_compat=0 / constrained_intra=0 / bframes=7 / b_pyramid=2 / b_adapt=2 / b_bias=0 / direct=3 / weightb=1 / open_gop=0 / weightp=2 / keyint=240 / keyint_min=24 / scenecut=40 / intra_refresh=0 / rc=2pass / mbtree=0 / bitrate=3739 / ratetol=1.0 / qcomp=0.60 / qpmin=0 / qpmax=69 / qpstep=4 / cplxblur=20.0 / qblur=0.5 / ip_ratio=1.40 / pb_ratio=1.30 / aq=1:1.00
Язык : Russian
Аудио
Идентификатор : 2
Формат : AC-3
Формат/Информация : Audio Coding 3
Расширение режима : CM (complete main)
Параметр Endianness формата : Big
Идентификатор кодека : A_AC3
Продолжительность : 1 ч. 14 м.
Вид битрейта : Постоянный
Битрейт : 448 Кбит/сек
Каналы : 6 каналов
Расположение каналов : Front: L C R, Side: L R, LFE
Частота : 48,0 КГц
Битовая глубина : 16 бит
Метод сжатия : С потерями
Размер потока : 239 Мбайт (11%)
Заголовок : Rus
Язык : Russian
Меню
00:00:00.000 : :Chapter 01
00:09:15.916 : :Chapter 02
00:18:48.000 : :Chapter 03
00:27:35.750 : :Chapter 04
00:37:23.791 : :Chapter 05
00:47:10.083 : :Chapter 06
00:54:14.791 : :Chapter 07
01:03:36.416 : :Chapter 08
x264 [info]: frame I:1387 Avg QP:10.76 size:176832
x264 [info]: frame P:32049 Avg QP:15.46 size: 35564
x264 [info]: frame B:74154 Avg QP:16.25 size: 9572
x264 [info]: consecutive B-frames: 7.0% 7.1% 13.6% 42.2% 16.3% 10.2% 1.8% 1.8%



   Похожие торренты   Торрент   Размер 
В этой теме нет новых непрочитанных сообщений. Три богатыря: Ход конем (2014) BDRip 1080p

1334 | 77

4.38 ГБ

В этой теме нет новых непрочитанных сообщений. Три богатыря: Ход конем (2014) BDRip 1080p | 60 fps | Лицензия

44 | 23

22.88 ГБ

В этой теме нет новых непрочитанных сообщений. Три богатыря: Ход конем (2014) BDRip 1080p от HDClub | Лицензия

1042 | 43

7.02 ГБ

В этой теме нет новых непрочитанных сообщений. Три богатыря: Ход конем (2014) BDRip 1080p от Ash61 | 3D-Video | halfOU

455 | 32

3.26 ГБ

В этой теме нет новых непрочитанных сообщений. Три богатыря: Ход конем (2014) Blu-Ray 1080p | Лицензия

64 | 13

16.56 ГБ

В этой теме нет новых непрочитанных сообщений. Три богатыря: Ход конем (2014) BDRip от MediaClub | D | Лицензия

594 | 47

743.96 МБ

В этой теме нет новых непрочитанных сообщений. Три богатыря: Ход конем (2014) BDRip от Twi7ter | Лицензия

10558 | 499

1.45 ГБ




Вы не можете начинать темы
Вы не можете отвечать на сообщения
Вы не можете редактировать свои сообщения
Вы не можете удалять свои сообщения
Вы не можете добавлять вложения

Перейти:  
Для Мосгорсуда, Роскомнадзора и рекламодателей: mosgorsud-torrent[собачка]yandex.ru
 Вход
ppkBB3cker v.2 © 2008-2014 @ PPK
[ Time : 0.336s | 15 Queries | GZIP : Off ]

Торрент трекер RUTOR.IN, Не можете зайти на rutor.org? Какой новый адрес рутор? Какое зеркало рутор? Не работает rutor.org и зеркала? Тогда наш торрент специально для вас. Rutor.in неофициальное зеркало rutor. В случае если у Вас заблокирован rutor или вдруг Вы не можете на него зайти, то Вы без труда сможете скачать бесплатно и без рекламы последние новинки кино, игр, сериалов и прочего у нас, на Rutor.in. Не нужно использовать прокси, чтобы зайти на рутор, достаточно воспользоваться нашим ресурсом. Все новые фильмы, игры, сериалы, книги и музыка за 2013 и 2014 годы через торрент бесплатно. Скачивайте фильмы в хорошем качестве, игры для пк, xbox, playstation без регистрации. У нас вы найдете новые Зарубежные сериалы и Русские сериалы 2013, 2014, 2015 годов. Оставайтесь с нами, качайте любимые фильмы, игры, сериалы, книги и музыку.