img image001 image001 image001 image001 image001 image001 image001 image001 image001 image001 image001 image001 image001 image001 image001

Planets Sun Sun Sun
Статистика раздачи
Автор: Nickolas3434 | Размер: 4.26 ГБ | Добавлен: 25 фев 2015
Раздают: 171    Качают: 45
Скачать торрент
Скачать торрент
Описание торрента

СообщениеДобавлено: 25 фев 2015 

Оригинальное название: Три богатыря: Коллекция
Год выхода: 2004, 2006, 2007, 2010, 2012, 2014 г.,
Жанр: Комедия, Семейный, Мультфильм
Продолжительность: 01:18:46 | 01:08:08 | 01:19:31 | 01:16:32 | 01:11:18 | 01:14:42

#77

Информация о фильме
Название : Алеша Попович и Тугарин Змей
Год выхода : 2004
Жанр : Мультфильм, мюзикл, фэнтези, мелодрама, комедия
Режиссер : Константин Бронзит
Роли озвучивали : Олег Куликович, Лия Медведева, Дмитрий Высоцкий, Анатолий Петров, Наталья Данилова, Сергей Маковецкий, Иван Краско, Татьяна Иванова, Михаил Черняк, Константин Бронзит и др.

Описание : В древнем русском городе Ростове родился в поповской семье сын. Назвали его родители Алешей. А когда он вырос и стал богатырем, то совершил такие подвиги, что стал героем русских былин Алешей Поповичем. Только подвиги его начались с конфуза…
Подступила к Ростову тугарская вражеская орда во главе с Тугарином Змеем и потребовала, чтобы жители города выплатили дань. Поповский сын предложил план действий. Народ этот план одобрил и собрал гору золота. Алеша же умудрился собственный план «благополучно» провалить, да с каким треском!
И золото упустил, и полгорода разрушил. После чего поклялся — Тугарина Змея изловить и золото вернуть. Отправился Алеша Попович в путь вместе с дедом Тихоном, который мальчика вырастил и воспитал, а чуть позже компанию им составили говорящий конь Юлий, купленный у цыган, почти 16-летняя красавица Любава, ее бабка и их ослик Моисей…
Страна : Россия
Производство : Кинокомпания CTB, Анимационная студия Мельница
Продолжительность : 01:18:46
Перевод : Оригинал
Автор рипа и релиза :
Файл
Формат видео : AVI
Качество : BDRip (Исходник - Blu-ray Disc)
Видео : XVID, 720x384 (1.85:1), 23.976 fps, 1154 Kbps
Аудио : Русский, AC3, 128 Кбит/с, 48.0 Hz, 2 ch



General
Complete name : E:/Torrent_2/Три богатыря. Коллекция [2004-2014, XviD BDRip, RUS] [Страник 2.0]/Алеша Попович и Тугарин Змей [2004, XviD BDRip, RUS][Страник 2.0].avi
Format : AVI
Format/Info : Audio Video Interleave
File size : 727 MiB
Duration : 1h 18mn
Overall bit rate : 1 291 Kbps
Writing application : VirtualDubMod 1.5.10.3 (build 2550/release)
Writing library : VirtualDubMod build 2550/release
Video #0
ID : 0
Format : MPEG-4 Visual
Format profile : Advanced Simple@L5
Format settings, BVOP : 2
Format settings, QPel : No
Format settings, GMC : No warppoints
Format settings, Matrix : Default (H.263)
Codec ID : XVID
Codec ID/Hint : XviD
Duration : 1h 18mn
Bit rate : 1 154 Kbps
Width : 720 pixels
Height : 384 pixels
Display aspect ratio : 1.85:1
Frame rate : 23.976 fps
Color space : YUV
Chroma subsampling : 4:2:0
Bit depth : 8 bits
Scan type : Progressive
Compression mode : Lossy
Bits/(Pixel*Frame) : 0.174
Stream size : 650 MiB (89%)
Writing library : XviD 1.2.1 (UTC 2008-12-04)
Audio #1
ID : 1
Format : AC-3
Format/Info : Audio Coding 3
Mode extension : CM (complete main)
Format settings, Endianness : Big
Codec ID : 2000
Duration : 1h 18mn
Bit rate mode : Constant
Bit rate : 128 Kbps
Channel(s) : 2 channels
Channel positions : Front: L R
Sampling rate : 48.0 KHz
Bit depth : 16 bits
Compression mode : Lossy
Stream size : 72.1 MiB (10%)
Alignment : Split accross interleaves
Interleave, duration : 42 ms (1.00 video frame)
Interleave, preload duration : 500 ms

#77

Информация о фильме
Название : Добрыня Никитич и Змей Горыныч
Год выхода : 2006
Жанр : Мультфильм, фэнтези, комедия, приключения
Режиссер : Илья Максимов
Роли озвучивали : Валерий Соловьев, Юрий Тарасов, Сергей Маковецкий, Андрей Толубеев, Екатерина Гороховская, Олег Куликович, Анатолий Петров, Наталья Данилова и др.

Описание : Пока храбрый воин Добрыня Никитич собирал с тугар дань, в Киеве похитили любимую племянницу князя — Забаву Путятичну. Вопреки воле князя, Добрыня с женихом Забавы Елисеем отправляется на ее поиски. В пути их ждет много приключений…
Страна : Россия
Производство : Анимационная студия Мельница
Продолжительность : 01:08:08
Перевод : Оригинал
Автор рипа и релиза :
Файл
Формат видео : AVI
Качество : BDRip (Исходник - Blu-ray Disc)
Видео : XVID, 720x384 (1.85:1), 23.976 fps, 1350 Kbps
Аудио : Русский, AC3, 128 Кбит/с, 48.0 Hz, 2 ch



General
Complete name : E:/Torrent_2/Три богатыря. Коллекция [2004-2014, XviD BDRip, RUS] [Страник 2.0]/Добрыня Никитич и Змей Горыныч [2006, XviD BDRip, RUS][Страник 2.0].avi
Format : AVI
Format/Info : Audio Video Interleave
File size : 725 MiB
Duration : 1h 8mn
Overall bit rate : 1 487 Kbps
Writing application : VirtualDubMod 1.5.10.3 (build 2550/release)
Writing library : VirtualDubMod build 2550/release
Video #0
ID : 0
Format : MPEG-4 Visual
Format profile : Advanced Simple@L5
Format settings, BVOP : 2
Format settings, QPel : No
Format settings, GMC : No warppoints
Format settings, Matrix : Default (H.263)
Codec ID : XVID
Codec ID/Hint : XviD
Duration : 1h 8mn
Bit rate : 1 350 Kbps
Width : 720 pixels
Height : 384 pixels
Display aspect ratio : 1.85:1
Frame rate : 23.976 fps
Color space : YUV
Chroma subsampling : 4:2:0
Bit depth : 8 bits
Scan type : Progressive
Compression mode : Lossy
Bits/(Pixel*Frame) : 0.204
Stream size : 658 MiB (91%)
Writing library : XviD 1.2.1 (UTC 2008-12-04)
Audio #1
ID : 1
Format : AC-3
Format/Info : Audio Coding 3
Mode extension : CM (complete main)
Format settings, Endianness : Big
Codec ID : 2000
Duration : 1h 8mn
Bit rate mode : Constant
Bit rate : 128 Kbps
Channel(s) : 2 channels
Channel positions : Front: L R
Sampling rate : 48.0 KHz
Bit depth : 16 bits
Compression mode : Lossy
Stream size : 62.3 MiB (9%)
Alignment : Split accross interleaves
Interleave, duration : 42 ms (1.00 video frame)
Interleave, preload duration : 500 ms

#77

Информация о фильме
Название : Илья Муромец и Соловей Разбойник
Год выхода : 2007
Жанр : Мультфильм, комедия, приключения
Режиссер : Владимир Торопчин
Роли озвучивали : Валерий Соловьев, Екатерина Гороховская, Анатолий Петров, Олег Табаков, Сергей Маковецкий, Андрей Толубеев, Олег Куликович, Юрий Тарасов, Наталья Данилова и др.

Описание : Славится земля русская богатырями богатырскими да разбойниками разбойничьими… А сверху всего князь княжеский сидит, за всем следит и порядок наводит, если нужно. Да только не всегда выходит у князя так, как нужно — правильно. Вот и сейчас — с богатырём поругался, да от Соловья Разбойника урон потерпел немалый: увёл бандит окаянный казну государственную прямо из-под носа!Что делать князю? А ничего особенного — на то он и князь, чтоб из любой ситуации выход найти! Вот и отправились князь с Ильёй на поиски похищенного, а за ними вслед увязалась корреспондентка летописи «Новая береста». А дорога непростая выдалась, до самого Царьграда довела, где встретил их Император Византийский, да только незадача вышла — повздорили наши герои с императором этим, и заключил он против Князя Киевского и Земель русских союз с Соловьем Разбойником…
Страна : Россия
Производство : Кинокомпания CTB, Анимационная студия Мельница
Продолжительность : 01:19:31
Перевод : Оригинал
Автор рипа и релиза :
Файл
Формат видео : AVI
Качество : BDRip (Исходник - Blu-ray Disc)
Видео : XVID, 720x384 (1.85:1), 23.976 fps, 1142 Kbps
Аудио : Русский, AC3, 128 Кбит/с, 48.0 Hz, 2 ch



General
Complete name : E:/Torrent_2/Три богатыря. Коллекция [2004-2014, XviD BDRip, RUS] [Страник 2.0]/Илья Муромец и Соловей Разбойник [2007, XviD BDRip, RUS][Страник 2.0].avi
Format : AVI
Format/Info : Audio Video Interleave
File size : 727 MiB
Duration : 1h 19mn
Overall bit rate : 1 279 Kbps
Writing application : VirtualDubMod 1.5.10.3 (build 2550/release)
Writing library : VirtualDubMod build 2550/release
Video #0
ID : 0
Format : MPEG-4 Visual
Format profile : Advanced Simple@L5
Format settings, BVOP : 2
Format settings, QPel : No
Format settings, GMC : No warppoints
Format settings, Matrix : Default (H.263)
Codec ID : XVID
Codec ID/Hint : XviD
Duration : 1h 19mn
Bit rate : 1 142 Kbps
Width : 720 pixels
Height : 384 pixels
Display aspect ratio : 1.85:1
Frame rate : 23.976 fps
Color space : YUV
Chroma subsampling : 4:2:0
Bit depth : 8 bits
Scan type : Progressive
Compression mode : Lossy
Bits/(Pixel*Frame) : 0.172
Stream size : 649 MiB (89%)
Writing library : XviD 1.2.1 (UTC 2008-12-04)
Audio #1
ID : 1
Format : AC-3
Format/Info : Audio Coding 3
Mode extension : CM (complete main)
Format settings, Endianness : Big
Codec ID : 2000
Duration : 1h 19mn
Bit rate mode : Constant
Bit rate : 128 Kbps
Channel(s) : 2 channels
Channel positions : Front: L R
Sampling rate : 48.0 KHz
Bit depth : 16 bits
Compression mode : Lossy
Stream size : 72.8 MiB (10%)
Alignment : Split accross interleaves
Interleave, duration : 42 ms (1.00 video frame)
Interleave, preload duration : 500 ms

#77

Информация о фильме
Название : Три богатыря и Шамаханская царица
Год выхода : 2010
Жанр : Мультфильм, фэнтези, комедия, приключения
Режиссер : Сергей Глезин
Роли озвучивали : Дмитрий Быковский, Валерий Соловьев, Олег Куликович, Сергей Маковецкий, Анна Геллер, Дмитрий Высоцкий, Константин Бронзит, Мария Цветкова, Елена Шульман, Лия Медведева

Описание : Легендарная Шамаханская царица, которая сводила с ума многих царей и простых смертных, положила свой глаз и на Киевского князя. Тот заболел любовью странной по ней. Но чтобы доставить в целости и сохранности эту чудо-богиню в Киев-Град, срочно из отпуска вызывают всех троих, уже знакомых нам, богатырей: Алёшу Поповича, Добрыню Никитича и Илью Муромца. Теперь троица должна решить, как быть дальше? Вроде бы и слухи о царице ходят нелестные, и князя жаль.
Страна : Россия
Производство : Кинокомпания CTB, Анимационная студия Мельница
Продолжительность : 01:16:32
Перевод : Оригинал
Автор рипа и релиза :
Файл
Формат видео : AVI
Качество : BDRip (Исходник - Blu-ray Disc)
Видео : XVID, 720x400 (16:9), 24.000 fps, 1194 Kbps
Аудио : Русский, AC3, 128 Кбит/с, 48.0 Hz, 2 ch



General
Complete name : E:/Torrent_2/Три богатыря. Коллекция [2004-2014, XviD BDRip, RUS] [Страник 2.0]/Три богатыря и Шамаханская царица [2010, XviD BDRip, RUS][Страник 2.0].avi
Format : AVI
Format/Info : Audio Video Interleave
File size : 729 MiB
Duration : 1h 16mn
Overall bit rate : 1 331 Kbps
Writing application : VirtualDubMod 1.5.10.3 (build 2550/release)
Writing library : VirtualDubMod build 2550/release
Video #0
ID : 0
Format : MPEG-4 Visual
Format profile : Advanced Simple@L5
Format settings, BVOP : 2
Format settings, QPel : No
Format settings, GMC : No warppoints
Format settings, Matrix : Default (H.263)
Codec ID : XVID
Codec ID/Hint : XviD
Duration : 1h 16mn
Bit rate : 1 194 Kbps
Width : 720 pixels
Height : 400 pixels
Display aspect ratio : 16:9
Frame rate : 24.000 fps
Color space : YUV
Chroma subsampling : 4:2:0
Bit depth : 8 bits
Scan type : Progressive
Compression mode : Lossy
Bits/(Pixel*Frame) : 0.173
Stream size : 654 MiB (90%)
Writing library : XviD 1.2.1 (UTC 2008-12-04)
Audio #1
ID : 1
Format : AC-3
Format/Info : Audio Coding 3
Mode extension : CM (complete main)
Format settings, Endianness : Big
Codec ID : 2000
Duration : 1h 16mn
Bit rate mode : Constant
Bit rate : 128 Kbps
Channel(s) : 2 channels
Channel positions : Front: L R
Sampling rate : 48.0 KHz
Bit depth : 16 bits
Compression mode : Lossy
Stream size : 70.1 MiB (10%)
Alignment : Split accross interleaves
Interleave, duration : 42 ms (1.00 video frame)
Interleave, preload duration : 500 ms

#77

Информация о фильме
Название : Три богатыря на дальних берегах
Год выхода : 2012
Жанр : Мультфильм, приключения, семейный
Режиссер : Константин Феоктистов
Роли озвучивали : Сергей Маковецкий, Елизавета Боярская, Фёдор Бондарчук, Дмитрий Быковский, Елена Шульман, Олег Куликович, Лия Медведева, Мария Цветкова, Дмитрий Высоцкий, Анатолий Петров, Наталья Данилова

Описание : Очередное путешествие таит в себе не только новые опасности, но и новые земли. Герои держат путь далеко от дома и как всегда с благородной целью — помочь людям. Кому, зачем и как? Не по-богатырски это — в раздумья пускаться, когда время поджимает и нужно действовать! Правда, помощь иной раз оказывается хуже татарской орды, но богатыри не отчаиваются, тем более что у них много верных помощников. Ради спасения своих друзей, героям придется подчас идти на очень решительные шаги, жертвовать собой и не думать, что ждет их впереди. Но, как известно, удача любит смелых и отважных.
Страна : Россия
Производство : Кинокомпания CTB, Анимационная студия Мельница
Продолжительность : 01:11:18
Перевод : Оригинал
Автор рипа и релиза :
Файл
Формат видео : AVI
Качество : BDRip (Исходник - Blu-ray Disc)
Видео : XVID, 720x400 (16:9), 23.976 fps, 1290 Kbps
Аудио : Русский, AC3, 128 Кбит/с, 48.0 Hz, 2 ch



General
Complete name : E:/Torrent_2/Три богатыря. Коллекция [2004-2014, XviD BDRip, RUS] [Страник 2.0]/Три богатыря на дальних берегах [2012, XviD BDRip, RUS][Страник 2.0].avi
Format : AVI
Format/Info : Audio Video Interleave
File size : 728 MiB
Duration : 1h 11mn
Overall bit rate : 1 427 Kbps
Writing application : VirtualDubMod 1.5.10.3 (build 2550/release)
Writing library : VirtualDubMod build 2550/release
Video #0
ID : 0
Format : MPEG-4 Visual
Format profile : Advanced Simple@L5
Format settings, BVOP : 2
Format settings, QPel : No
Format settings, GMC : No warppoints
Format settings, Matrix : Default (H.263)
Codec ID : XVID
Codec ID/Hint : XviD
Duration : 1h 11mn
Bit rate : 1 290 Kbps
Width : 720 pixels
Height : 400 pixels
Display aspect ratio : 16:9
Frame rate : 23.976 fps
Color space : YUV
Chroma subsampling : 4:2:0
Bit depth : 8 bits
Scan type : Progressive
Compression mode : Lossy
Bits/(Pixel*Frame) : 0.187
Stream size : 658 MiB (90%)
Writing library : XviD 1.2.1 (UTC 2008-12-04)
Audio #1
ID : 1
Format : AC-3
Format/Info : Audio Coding 3
Mode extension : CM (complete main)
Format settings, Endianness : Big
Codec ID : 2000
Duration : 1h 11mn
Bit rate mode : Constant
Bit rate : 128 Kbps
Channel(s) : 2 channels
Channel positions : Front: L R
Sampling rate : 48.0 KHz
Bit depth : 16 bits
Compression mode : Lossy
Stream size : 65.3 MiB (9%)
Alignment : Split accross interleaves
Interleave, duration : 42 ms (1.00 video frame)
Interleave, preload duration : 500 ms

#77

Информация о фильме
Название : Три богатыря: Ход конём
Год выхода : 2014
Жанр : мультфильм, комедия, приключения, фэнтези
Режиссер : Константин Феоктистов
Роли озвучивали : Сергей Маковецкий, Дмитрий Быковский-Ромашов, Валерий Соловьев, Олег Куликович, Дмитрий Высоцкий, Дмитрий Нагиев, Наргиз Закирова, Гоша Куценко

Описание : Придворный конь Гай Юлий Цезарь на свою беду подслушивает разговор бояр и узнает о заговоре против князя. Что же делать? Защитить-то князя некому! Богатыри далеко — ловят разбойника Потаню, Горыныч в отпуске, войско на учениях… Но если плохие парни собираются захватить мир, то кому-то же надо его спасти? Кто же он, настоящий герой, который придет на помощь? Конечно, конь Юлий! Настоящий стратег и «великий комбинатор». Он непременно всех спасет, а если не спасет, то хотя бы постарается. Главное, чтобы операция по спасению мира не обернулась полной катастрофой.
Страна : Россия
Производство : Кинокомпания CTB, Анимационная студия Мельница
Продолжительность : 01:14:42
Перевод : Оригинал
Автор рипа и релиза :
Файл
Формат видео : AVI
Качество : BDRip (Исходник - Blu-ray Disc)
Видео : XVID, 720x384 (16:9), 24.000 fps, 1220 Kbps
Аудио : Русский, AC3, 128 Кбит/с, 48.0 Hz, 2 ch



General
Complete name : E:/Torrent_2/Три богатыря. Коллекция [2004-2014, XviD BDRip, RUS] [Страник 2.0]/Три богатыря. Ход конём [2014, XviD BDRip, RUS][Страник 2.0].avi
Format : AVI
Format/Info : Audio Video Interleave
File size : 725 MiB
Duration : 1h 14mn
Overall bit rate : 1 357 Kbps
Writing application : VirtualDubMod 1.5.10.3 (build 2550/release)
Writing library : VirtualDubMod build 2550/release
Video #0
ID : 0
Format : MPEG-4 Visual
Format profile : Advanced Simple@L5
Format settings, BVOP : 2
Format settings, QPel : No
Format settings, GMC : No warppoints
Format settings, Matrix : Default (H.263)
Codec ID : XVID
Codec ID/Hint : XviD
Duration : 1h 14mn
Bit rate : 1 220 Kbps
Width : 720 pixels
Height : 384 pixels
Display aspect ratio : 1.85:1
Frame rate : 24.000 fps
Color space : YUV
Chroma subsampling : 4:2:0
Bit depth : 8 bits
Scan type : Progressive
Compression mode : Lossy
Bits/(Pixel*Frame) : 0.184
Stream size : 652 MiB (90%)
Writing library : XviD 1.2.1 (UTC 2008-12-04)
Audio #1
ID : 1
Format : AC-3
Format/Info : Audio Coding 3
Mode extension : CM (complete main)
Format settings, Endianness : Big
Codec ID : 2000
Duration : 1h 14mn
Bit rate mode : Constant
Bit rate : 128 Kbps
Channel(s) : 2 channels
Channel positions : Front: L R
Sampling rate : 48.0 KHz
Bit depth : 16 bits
Compression mode : Lossy
Stream size : 68.4 MiB (9%)
Alignment : Split accross interleaves
Interleave, duration : 42 ms (1.00 video frame)
Interleave, preload duration : 500 ms

Моя максимальная скорость отдачи 100КБ/c





   Похожие торренты   Торрент   Размер 
В этой теме нет новых непрочитанных сообщений. Три богатыря: Коллекция (2004-2012) BDRip 720p от potroks

190 | 20

7.32 ГБ

В этой теме нет новых непрочитанных сообщений. Три богатыря : Антология (2004-2014) BDRip-AVC от R.G. HD-Films | 60 fps

510 | 168

18.32 ГБ

В этой теме нет новых непрочитанных сообщений. Три Богатыря (2004-2010) BDRip 1080p

98 | 17

8.74 ГБ

В этой теме нет новых непрочитанных сообщений. Три богатыря (2004-2015) BDRip 1080p | Гексалогия

124 | 37

25.73 ГБ

В этой теме нет новых непрочитанных сообщений. Три Богатыря (2004-2010) BDRip 720p | Квадрология

31 | 24

8.42 ГБ

В этой теме нет новых непрочитанных сообщений. Три богатыря: Квадрология (2004-2010) BDRemux 1080p

2 | 4

26.63 ГБ

В этой теме нет новых непрочитанных сообщений. Три богатыря: Пенталогия (2004-2012) DVDRip | КПК | Лицензия

207 | 17

1.98 ГБ




Вы не можете начинать темы
Вы не можете отвечать на сообщения
Вы не можете редактировать свои сообщения
Вы не можете удалять свои сообщения
Вы не можете добавлять вложения

Перейти:  
Для Мосгорсуда, Роскомнадзора и рекламодателей: mosgorsud-torrent[собачка]yandex.ru
 Вход
ppkBB3cker v.2 © 2008-2014 @ PPK
[ Time : 0.042s | 16 Queries | GZIP : Off ]

Торрент трекер RUTOR.IN, Не можете зайти на rutor.org? Какой новый адрес рутор? Какое зеркало рутор? Не работает rutor.org и зеркала? Тогда наш торрент специально для вас. Rutor.in неофициальное зеркало rutor. В случае если у Вас заблокирован rutor или вдруг Вы не можете на него зайти, то Вы без труда сможете скачать бесплатно и без рекламы последние новинки кино, игр, сериалов и прочего у нас, на Rutor.in. Не нужно использовать прокси, чтобы зайти на рутор, достаточно воспользоваться нашим ресурсом. Все новые фильмы, игры, сериалы, книги и музыка за 2013 и 2014 годы через торрент бесплатно. Скачивайте фильмы в хорошем качестве, игры для пк, xbox, playstation без регистрации. У нас вы найдете новые Зарубежные сериалы и Русские сериалы 2013, 2014, 2015 годов. Оставайтесь с нами, качайте любимые фильмы, игры, сериалы, книги и музыку.
cron