img image001 image001 image001 image001 image001 image001 image001 image001 image001 image001 image001 image001 image001 image001 image001

Planets Sun Sun Sun
Статистика раздачи
Автор: Nickolas3434 | Размер: 4.38 ГБ | Добавлен: 27 фев 2015
Раздают: 1334    Качают: 77
Скачать торрент
Скачать торрент
Описание торрента

СообщениеДобавлено: 27 фев 2015 

Информация о фильме
Название: Три богатыря: Ход конем
Год выхода: 2014
Жанр: Мультфильм, комедия, приключения, фэнтези
Режиссер: Константин Феоктистов
В ролях: Сергей Маковецкий, Дмитрий Высоцкий, Дмитрий Нагиев, Олег Куликович, Валерий Соловьев, Дмитрий Быковский-Ромашов, Гоша Куценко, Наргиз Закирова, Анатолий Петров, Лия Медведева
О фильме:
Придворный конь Гай Юлий Цезарь на свою беду подслушивает разговор бояр и узнает о заговоре против князя. Что же делать? Защитить-то князя некому! Богатыри далеко — ловят разбойника Потаню, Горыныч в отпуске, войско на учениях… Но если плохие парни собираются захватить мир, то кому-то же надо его спасти? Кто же он, настоящий герой, который придет на помощь? Конечно, конь Юлий! Настоящий стратег и «великий комбинатор». Он непременно всех спасет, а если не спасет, то хотя бы постарается. Главное, чтобы операция по спасению мира не обернулась полной катастрофой.

Страна: Россия
Студия: Кинокомпания CTB, Анимационная студия Мельница
Продолжительность: 01:14:43
Перевод: Не требуется
Файл
Кодек: x264
Качество: BDRip 1080p (источник: HDCLUB / Blu-ray Disc / 1080p)
Видео: 1920х1040 (1.85:1), 6233 Kbps, 24.000 fps, 0.130 bit/pixel
Аудио #1: 48.0 kHz, AC3 Dolby Digital, 3/2 (L,C,R,l,r) + LFE ch, 640 kbps
Аудио #2: 48.0 kHz, DTS, 3/2 (L,C,R,l,r) + LFE ch, 1509 kbps, 24 bits
Субтитры: Нет
Семпл

3 full pass
x264 [info]: frame I:1444 Avg QP: 5.64 size:322384
x264 [info]: frame P:37183 Avg QP:10.98 size: 58638
x264 [info]: frame B:68963 Avg QP:14.82 size: 12276
General
Unique ID : 211856102217337385978473988995206866954 (0x9F62004925F1FBCAA2C80ACB3A67E80A)
Complete name : E:Три.богатыря.Ход.конем.2014.x264.BDRip.1080p.mkv
Format : Matroska
Format version : Version 2
File size : 4.38 GiB
Duration : 1h 14mn
Overall bit rate : 8 384 Kbps
Encoded date : UTC 2015-02-25 13:58:41
Writing application : mkvmerge v5.8.0 ('No Sleep / Pillow') built on Sep 2 2012 15:37:04
Writing library : libebml v1.2.3 + libmatroska v1.3.0
Video
ID : 1
Format : AVC
Format/Info : Advanced Video Codec
Format profile : High@L4.1
Format settings, CABAC : Yes
Format settings, ReFrames : 4 frames
Codec ID : V_MPEG4/ISO/AVC
Duration : 1h 14mn
Bit rate : 6 233 Kbps
Width : 1 920 pixels
Height : 1 040 pixels
Display aspect ratio : 1.85:1
Frame rate mode : Constant
Frame rate : 24.000 fps
Color space : YUV
Chroma subsampling : 4:2:0
Bit depth : 8 bits
Scan type : Progressive
Bits/(Pixel*Frame) : 0.130
Stream size : 3.17 GiB (72%)
Writing library : x264 core 144 r2525 40bb568
Encoding settings : cabac=1 / ref=4 / deblock=1:0:0 / analyse=0x3:0x133 / me=tesa / subme=11 / psy=1 / psy_rd=1.00:0.00 / mixed_ref=1 / me_range=32 / chroma_me=1 / trellis=2 / 8x8dct=1 / cqm=0 / deadzone=21,11 / fast_pskip=0 / chroma_qp_offset=-2 / threads=12 / lookahead_threads=1 / sliced_threads=0 / nr=0 / decimate=0 / interlaced=0 / bluray_compat=0 / constrained_intra=0 / bframes=3 / b_pyramid=2 / b_adapt=2 / b_bias=0 / direct=3 / weightb=1 / open_gop=0 / weightp=2 / keyint=240 / keyint_min=24 / scenecut=40 / intra_refresh=0 / rc_lookahead=60 / rc=2pass / mbtree=1 / bitrate=6233 / ratetol=1.0 / qcomp=0.60 / qpmin=0 / qpmax=69 / qpstep=4 / cplxblur=20.0 / qblur=0.5 / ip_ratio=1.40 / aq=1:1.00
Language : Russian
Default : Yes
Forced : No
Audio #1
ID : 2
Format : AC-3
Format/Info : Audio Coding 3
Mode extension : CM (complete main)
Format settings, Endianness : Big
Codec ID : A_AC3
Duration : 1h 14mn
Bit rate mode : Constant
Bit rate : 640 Kbps
Channel(s) : 6 channels
Channel positions : Front: L C R, Side: L R, LFE
Sampling rate : 48.0 KHz
Bit depth : 16 bits
Compression mode : Lossy
Stream size : 342 MiB (8%)
Language : Russian
Default : Yes
Forced : No
Audio #2
ID : 3
Format : DTS
Format/Info : Digital Theater Systems
Mode : 16
Format settings, Endianness : Big
Codec ID : A_DTS
Duration : 1h 14mn
Bit rate mode : Constant
Bit rate : 1 509 Kbps
Channel(s) : 6 channels
Channel positions : Front: L C R, Side: L R, LFE
Sampling rate : 48.0 KHz
Bit depth : 24 bits
Compression mode : Lossy
Stream size : 806 MiB (18%)
Language : Russian
Default : No
Forced : No
Menu
00:00:00.000 : ru:Chapter 1
00:09:15.916 : ru:Chapter 2
00:18:48.000 : ru:Chapter 3
00:27:35.750 : ru:Chapter 4
00:37:23.791 : ru:Chapter 5
00:47:10.083 : ru:Chapter 6
00:54:14.791 : ru:Chapter 7
01:03:36.416 : ru:Chapter 8



   Похожие торренты   Торрент   Размер 
В этой теме нет новых непрочитанных сообщений. Три богатыря: Ход конем (2014) BDRip 1080p

2706 | 125

2.19 ГБ

В этой теме нет новых непрочитанных сообщений. Три богатыря: Ход конем (2014) BDRip 1080p | 60 fps | Лицензия

44 | 23

22.88 ГБ

В этой теме нет новых непрочитанных сообщений. Три богатыря: Ход конем (2014) BDRip 1080p от HDClub | Лицензия

1042 | 43

7.02 ГБ

В этой теме нет новых непрочитанных сообщений. Три богатыря: Ход конем (2014) BDRip 1080p от Ash61 | 3D-Video | halfOU

455 | 32

3.26 ГБ

В этой теме нет новых непрочитанных сообщений. Три богатыря: Ход конем (2014) Blu-Ray 1080p | Лицензия

64 | 13

16.56 ГБ

В этой теме нет новых непрочитанных сообщений. Три богатыря: Ход конем (2014) BDRip-AVC от ExKinoRay | Лицензия

434 | 19

1.13 ГБ

В этой теме нет новых непрочитанных сообщений. Три богатыря: Ход конем (2014) BDRip от Twi7ter | Лицензия

10558 | 499

1.45 ГБ




Вы не можете начинать темы
Вы не можете отвечать на сообщения
Вы не можете редактировать свои сообщения
Вы не можете удалять свои сообщения
Вы не можете добавлять вложения

Перейти:  
Для Мосгорсуда, Роскомнадзора и рекламодателей: mosgorsud-torrent[собачка]yandex.ru
 Вход
ppkBB3cker v.2 © 2008-2014 @ PPK
[ Time : 0.038s | 16 Queries | GZIP : On ]

Торрент трекер RUTOR.IN, Не можете зайти на rutor.org? Какой новый адрес рутор? Какое зеркало рутор? Не работает rutor.org и зеркала? Тогда наш торрент специально для вас. Rutor.in неофициальное зеркало rutor. В случае если у Вас заблокирован rutor или вдруг Вы не можете на него зайти, то Вы без труда сможете скачать бесплатно и без рекламы последние новинки кино, игр, сериалов и прочего у нас, на Rutor.in. Не нужно использовать прокси, чтобы зайти на рутор, достаточно воспользоваться нашим ресурсом. Все новые фильмы, игры, сериалы, книги и музыка за 2013 и 2014 годы через торрент бесплатно. Скачивайте фильмы в хорошем качестве, игры для пк, xbox, playstation без регистрации. У нас вы найдете новые Зарубежные сериалы и Русские сериалы 2013, 2014, 2015 годов. Оставайтесь с нами, качайте любимые фильмы, игры, сериалы, книги и музыку.