img image001 image001 image001 image001 image001 image001 image001 image001 image001 image001 image001 image001 image001 image001 image001

Planets Sun Sun Sun
Статистика раздачи
Автор: Nickolas3434 | Размер: 3.93 ГБ | Добавлен: 03 мар 2015
Раздают: 554    Качают: 6
Скачать торрент
Скачать торрент
Описание торрента

СообщениеДобавлено: 03 мар 2015 

Информация о фильме
Название: Город героев
Оригинальное название: Big Hero 6
Год выхода: 2014
Жанр: мультфильм, фантастика, комедия, семейный, боевик
Режиссер: Дон Холл, Крис Уильямс
В ролях: Райан Поттер, Скотт Эдсит, Дэниэл Хенни, ТиДжей Миллер, Джейми Чанг, Дэймон Уайанс мл., Дженезис Родригез, Джеймс Кромуэлл, Алан Тьюдик, Майя Рудольф

О фильме: Юный Хиро Хамада — прирожденный изобретатель и гений конструирования роботов. Вместе со старшим братом Тадаши они воплощают в жизнь самые передовые идеи в Техническом университете города будущего Сан-Франсокио. После серии загадочных событий друзья оказываются в центре коварного заговора. Отчаявшись, Хиро решает использовать веселого и добродушного экспериментального робота Бэймакса, перепрограммировав его в неуязвимую боевую машину.



Страна: США
Студия: Walt Disney Animation Studios, Walt Disney Pictures
Продолжительность: 01:41:52
Перевод: Профессиональный (полное дублирование) iTunes Russia

Релиз: &

Файл
Формат: Matroska
Видео: 1280x536 at 23.976 fps, x264@L4.1 ~4.5 Mbps avg
Aудио#1: Russian: 48 kHz, AC3, 3/2 (L,C,R,l,r) + LFE ch, ~384.00 kbps avg |Дубляж, iTunes Russia|
Аудио#2: English: 48 kHz, AC3, 3/2 (L,C,R,l,r) + LFE ch, ~640.00 kbps avg
Субтитры: Russian, English

General
Unique ID : 242473803567391149139519192711829259693 (0xB66AC182CAF91E27A9C4C0F33BFA05AD)
Complete name : Gorod.Geroev.2014.Bluray.720p.rus.eng.sub.RG.TNClub.[by.L].mkv
Format : Matroska
Format version : Version 2
File size : 3.93 GiB
Duration : 1h 41mn
Overall bit rate : 5 525 Kbps
Movie name : R.G. TNClub by L: Город Героев / Big Hero 6 (2014)
Encoded date : UTC 2015-02-26 21:24:51
Writing application : mkvmerge v3.2.0 ('Beginnings') built on Feb 12 2010 16:46:17
Writing library : libebml v0.7.9 + libmatroska v0.8.1
Attachment : Yes

Video
ID : 1
Format : AVC
Format/Info : Advanced Video Codec
Format profile : High@L4.1
Format settings, CABAC : Yes
Format settings, ReFrames : 10 frames
Codec ID : V_MPEG4/ISO/AVC
Duration : 1h 41mn
Bit rate : 4 499 Kbps
Width : 1 280 pixels
Height : 536 pixels
Display aspect ratio : 2.40:1
Frame rate mode : Constant
Frame rate : 23.976 fps
Color space : YUV
Chroma subsampling : 4:2:0
Bit depth : 8 bits
Scan type : Progressive
Bits/(Pixel*Frame) : 0.274
Stream size : 3.13 GiB (79%)
Writing library : x264 core 142 r2431 ac76440
Encoding settings : cabac=1 / ref=10 / deblock=1:-2:-1 / analyse=0x3:0x133 / me=umh / subme=11 / psy=1 / psy_rd=1.05:0.10 / mixed_ref=1 / me_range=48 / chroma_me=1 / trellis=2 / 8x8dct=1 / cqm=0 / deadzone=21,11 / fast_pskip=0 / chroma_qp_offset=-4 / threads=6 / lookahead_threads=1 / sliced_threads=0 / nr=0 / decimate=1 / interlaced=0 / bluray_compat=0 / constrained_intra=0 / bframes=10 / b_pyramid=2 / b_adapt=2 / b_bias=0 / direct=3 / weightb=1 / open_gop=0 / weightp=2 / keyint=230 / keyint_min=21 / scenecut=40 / intra_refresh=0 / rc_lookahead=60 / rc=2pass / mbtree=0 / bitrate=4499 / ratetol=1.0 / qcomp=0.70 / qpmin=0 / qpmax=69 / qpstep=4 / cplxblur=20.0 / qblur=0.5 / vbv_maxrate=50000 / vbv_bufsize=62500 / nal_hrd=none / filler=0 / ip_ratio=1.35 / pb_ratio=1.25 / aq=2:0.90
Language : English
Default : No
Forced : No

Audio #1
ID : 2
Format : AC-3
Format/Info : Audio Coding 3
Mode extension : CM (complete main)
Format settings, Endianness : Big
Codec ID : A_AC3
Duration : 1h 41mn
Bit rate mode : Constant
Bit rate : 384 Kbps
Channel(s) : 6 channels
Channel positions : Front: L C R, Side: L R, LFE
Sampling rate : 48.0 KHz
Bit depth : 16 bits
Compression mode : Lossy
Stream size : 280 MiB (7%)
Title : Дубляж, iTunes, AC3 5.1 @ 384
Language : Russian
Default : Yes
Forced : No

Audio #2
ID : 3
Format : AC-3
Format/Info : Audio Coding 3
Mode extension : CM (complete main)
Format settings, Endianness : Big
Codec ID : A_AC3
Duration : 1h 41mn
Bit rate mode : Constant
Bit rate : 640 Kbps
Channel(s) : 6 channels
Channel positions : Front: L C R, Side: L R, LFE
Sampling rate : 48.0 KHz
Bit depth : 16 bits
Compression mode : Lossy
Stream size : 466 MiB (12%)
Title : Оригинал, AC3 5.1
Language : English
Default : No
Forced : No

Text #1
ID : 4
Format : UTF-8
Codec ID : S_TEXT/UTF8
Codec ID/Info : UTF-8 Plain Text
Language : Russian
Default : Yes
Forced : No

Text #2
ID : 5
Format : UTF-8
Codec ID : S_TEXT/UTF8
Codec ID/Info : UTF-8 Plain Text
Language : English
Default : No
Forced : No

Menu
00:00:00.000 : en:00:00:00.000
00:07:15.685 : en:00:07:15.685
00:14:37.835 : en:00:14:37.835
00:21:49.183 : en:00:21:49.183
00:24:32.888 : en:00:24:32.888
00:29:34.731 : en:00:29:34.731
00:36:58.091 : en:00:36:58.091
00:44:18.322 : en:00:44:18.322
00:50:49.088 : en:00:50:49.088
00:54:33.020 : en:00:54:33.020
01:00:44.140 : en:01:00:44.140
01:07:12.612 : en:01:07:12.612
01:11:54.644 : en:01:11:54.644
01:16:26.665 : en:01:16:26.665
01:24:44.162 : en:01:24:44.162
01:31:52.757 : en:01:31:52.757



   Похожие торренты   Торрент   Размер 
В этой теме нет новых непрочитанных сообщений. Город героев / Big Hero 6 (2014) BDRip 720p | iTunes Russia

86 | 5

7.93 ГБ

В этой теме нет новых непрочитанных сообщений. Город героев / Big Hero 6 (2014) BDRip 720p от NNNB | 60 fps | iTunes Russia

288 | 9

3.92 ГБ

В этой теме нет новых непрочитанных сообщений. Город героев / Big Hero 6 (2014) BDRip-AVC от New-Team | D | iTunes Russia

248 | 10

1.45 ГБ

В этой теме нет новых непрочитанных сообщений. Город героев / Big Hero 6 (2014) BDRip от New-Team | D | iTunes Russia

60 | 16

2.18 ГБ

В этой теме нет новых непрочитанных сообщений. Город героев / Big Hero 6 (2014) BDRip от New-Team | D | iTunes Russia

319 | 2

2.14 ГБ

В этой теме нет новых непрочитанных сообщений. Город героев / Big Hero 6 (2014) BDRip от New-Team | D | iTunes Russia

964 | 57

1.45 ГБ

В этой теме нет новых непрочитанных сообщений. Город героев / Big Hero 6 (2014) BDRip от Twi7ter | iTunes Russia

146 | 6

1.45 ГБ




Вы не можете начинать темы
Вы не можете отвечать на сообщения
Вы не можете редактировать свои сообщения
Вы не можете удалять свои сообщения
Вы не можете добавлять вложения

Перейти:  
Для Мосгорсуда, Роскомнадзора и рекламодателей: mosgorsud-torrent[собачка]yandex.ru
 Вход
ppkBB3cker v.2 © 2008-2014 @ PPK
[ Time : 0.879s | 15 Queries | GZIP : Off ]

Торрент трекер RUTOR.IN, Не можете зайти на rutor.org? Какой новый адрес рутор? Какое зеркало рутор? Не работает rutor.org и зеркала? Тогда наш торрент специально для вас. Rutor.in неофициальное зеркало rutor. В случае если у Вас заблокирован rutor или вдруг Вы не можете на него зайти, то Вы без труда сможете скачать бесплатно и без рекламы последние новинки кино, игр, сериалов и прочего у нас, на Rutor.in. Не нужно использовать прокси, чтобы зайти на рутор, достаточно воспользоваться нашим ресурсом. Все новые фильмы, игры, сериалы, книги и музыка за 2013 и 2014 годы через торрент бесплатно. Скачивайте фильмы в хорошем качестве, игры для пк, xbox, playstation без регистрации. У нас вы найдете новые Зарубежные сериалы и Русские сериалы 2013, 2014, 2015 годов. Оставайтесь с нами, качайте любимые фильмы, игры, сериалы, книги и музыку.