img image001 image001 image001 image001 image001 image001 image001 image001 image001 image001 image001 image001 image001 image001 image001

Planets Sun Sun Sun
Статистика раздачи
Автор: Nickolas3434 | Размер: 1.45 ГБ | Добавлен: 03 мар 2015
Раздают: 92    Качают: 9
Скачать торрент
Скачать торрент
Описание торрента

СообщениеДобавлено: 03 мар 2015 

Информация о фильме
Название: Весёлые фантазии
Оригинальное название: Fun and Fancy Free
Год выхода: 1947
Жанр: мультфильм, семейный
Режиссер: Джек Кинни / Jack Kinney
В ролях: Сверчок Джимини, Микки Маус, Дональд Дак, Гуфи, Бонго, и др.
О фильме:
Две музыкальные истории, участниками которых являются персонажи студии «Дисней». Устав от переездов и плохого обращения, цирковой медвежонок по имени Бонго сбегает в лес. Жизнь в дикой местности оказывается не так уж легка, но смелый малыш находит самое главное — настоящую любовь. А далее Микки Маус, Дональд Дак и недотепа Гуфи пускаются в захватывающие приключения, чтобы вернуть процветание обедневшему королевству.

Страна: США
Продолжительность: 01:13:16
Перевод: Дублированный

Файл
Кодек: XviD
Качество: DVDRip
Видео: 704x528 (1.33:1), 23.976 fps, XviD build 50 ~2212 kbps avg, 0.25 bit/pixel
Звук: Аудио #1: Русский: 48 kHz, AC3 Dolby Digital, 2/0 (L,R) ch, ~384.00 kbps avg
Аудио #2: Английский: 48 kHz, AC3 Dolby Digital, 2/0 (L,R) ch, ~224.00 kbps avg
Субтитры: отсутствуют



General
Complete name : C:UsersX666DesktopFun_Fancy_FreeFun_Fancy_Free_DVDRip_DUB.avi
Format : AVI
Format/Info : Audio Video Interleave
File size : 1.45 GiB
Duration : 1h 13mn
Overall bit rate : 2 836 Kbps
Movie name : Fun and Fancy Free [ripped by domin8]
Genre : Child's
Writing application : VirtualDubMod 1.5.10.3 | www.virtualdub-fr.org || (build 2550/release)
Original source form/Name : Cartoon
Video #0
ID : 0
Format : MPEG-4 Visual
Format profile : Advanced Simple@L5
Format settings, BVOP : Yes
Format settings, QPel : No
Format settings, GMC : No warppoints
Format settings, Matrix : Default (H.263)
Codec ID : XVID
Codec ID/Hint : XviD
Duration : 1h 13mn
Bit rate : 2 214 Kbps
Width : 704 pixels
Height : 528 pixels
Display aspect ratio : 4:3
Frame rate : 23.976 fps
Color space : YUV
Chroma subsampling : 4:2:0
Bit depth : 8 bits
Scan type : Progressive
Bits/(Pixel*Frame) : 0.248
Stream size : 1.13 GiB (78%)
Writing library : XviD 1.2.1 (UTC 2008-12-04)
Audio #1
ID : 1
Format : AC-3
Format/Info : Audio Coding 3
Mode extension : CM (complete main)
Codec ID : 2000
Duration : 1h 13mn
Bit rate mode : Constant
Bit rate : 384 Kbps
Channel(s) : 2 channels
Channel positions : Front: L R
Sampling rate : 48.0 KHz
Bit depth : 16 bits
Stream size : 201 MiB (14%)
Alignment : Split accross interleaves
Interleave, duration : 42 ms (1.00 video frame)
Interleave, preload duration : 500 ms
Title : rus
Audio #2
ID : 2
Format : AC-3
Format/Info : Audio Coding 3
Mode extension : CM (complete main)
Codec ID : 2000
Duration : 1h 13mn
Bit rate mode : Constant
Bit rate : 224 Kbps
Channel(s) : 2 channels
Channel positions : Front: L R
Sampling rate : 48.0 KHz
Bit depth : 16 bits
Stream size : 117 MiB (8%)
Alignment : Split accross interleaves
Interleave, duration : 42 ms (1.00 video frame)
Interleave, preload duration : 500 ms
Title : eng






































Автор рипа: domin8



   Похожие торренты   Торрент   Размер 
В этой теме нет новых непрочитанных сообщений. Полет Фантазии: Два Голубя / Flights of Fancy: Two Doves CE (2013) РС

133 | 5

875.07 МБ

В этой теме нет новых непрочитанных сообщений. Фантазии Веснухина (1977) DVDRip

12 | 4

1.37 ГБ

В этой теме нет новых непрочитанных сообщений. Фантазии Фарятьева (1979) DVDRip от New-Team

29 | 4

1.46 ГБ

В этой теме нет новых непрочитанных сообщений. Фантазии Фарятьева (1979) DVDRip-AVC от New-Team

35 | 9

2.18 ГБ

В этой теме нет новых непрочитанных сообщений. Фантазии Фарятьева (1979) DVDRip | Реставрация

7 | 4

1.46 ГБ

В этой теме нет новых непрочитанных сообщений. Фантазии Фарятьева (1979) DVDRip от New-Team

4 | 5

2.18 ГБ

В этой теме нет новых непрочитанных сообщений. Возвращение надоедливой букашки / Фантазии от пентюхов / Fantasia chez les ploucs (1971) DVDRip-AVC от olegek70

2 | 44

1.37 ГБ




Вы не можете начинать темы
Вы не можете отвечать на сообщения
Вы не можете редактировать свои сообщения
Вы не можете удалять свои сообщения
Вы не можете добавлять вложения

Перейти:  
Для Мосгорсуда, Роскомнадзора и рекламодателей: mosgorsud-torrent[собачка]yandex.ru
 Вход
ppkBB3cker v.2 © 2008-2014 @ PPK
[ Time : 0.042s | 16 Queries | GZIP : Off ]

Торрент трекер RUTOR.IN, Не можете зайти на rutor.org? Какой новый адрес рутор? Какое зеркало рутор? Не работает rutor.org и зеркала? Тогда наш торрент специально для вас. Rutor.in неофициальное зеркало rutor. В случае если у Вас заблокирован rutor или вдруг Вы не можете на него зайти, то Вы без труда сможете скачать бесплатно и без рекламы последние новинки кино, игр, сериалов и прочего у нас, на Rutor.in. Не нужно использовать прокси, чтобы зайти на рутор, достаточно воспользоваться нашим ресурсом. Все новые фильмы, игры, сериалы, книги и музыка за 2013 и 2014 годы через торрент бесплатно. Скачивайте фильмы в хорошем качестве, игры для пк, xbox, playstation без регистрации. У нас вы найдете новые Зарубежные сериалы и Русские сериалы 2013, 2014, 2015 годов. Оставайтесь с нами, качайте любимые фильмы, игры, сериалы, книги и музыку.
cron